Sci-Fi

The Man from Earth 2007 DVDRIP ZEKTORM

  • Download 5x Faster
  • Download torrent
  • Direct Download
  • Rate this torrent +  |  -
The Man from Earth 2007 DVDRIP ZEKTORM

Anonymous and free Direct Download 300GB+


Torrent info

Name:The Man from Earth 2007 DVDRIP ZEKTORM

Total Size: 737.44 MB

Magnet: Magnet Link

Seeds: 0

Leechers: 0

Stream: Watch Online @ Movie4u

Last Updated: 2010-09-22 08:46:45 (Update Now)

Torrent added: 2009-08-29 14:42:11



VPN For Torrents

Torrent Files List


READ.hlp (Size: 737.44 MB) (Files: 4)

 READ.hlp

12.95 KB

 Subs

  The.Man.from.Earth.2007.DVDRIP-ZEKTORM.idx

596.94 KB

  The.Man.from.Earth.2007.DVDRIP-ZEKTORM.sub

36.54 MB

 The.Man.from.Earth.2007.DVDRIP-ZEKTORM.mp4

700.31 MB
 

Announce URL: http://eztv.tracker.thepiratebay.org:80/announce

Torrent description

Title : The Man from Earth
Year : 2007
Genre : Drama | Sci-Fi
iMDB Rate : User Rating: 8.1/10 19,582 votes
iMDB URL : http://www.imdb.com/title/tt0756683/
Awards : 2 wins & 1 nomination

Complete name : The.Man.from.Earth.2007.DVDRIP-ZEKTORM.mp4
Format : MPEG-4
Format profile : Base Media
Codec ID : isom
File size : 700 MiB
Duration : 1h 27mn
Overall bit rate : 1124 Kbps
Subtitles : English, Spanish, Dutch, Svenska, Portuguese,
Czech, Hrvatski, Russian (Format: VobSub)
Source : DVD NTSC
Encoded date : UTC 2009-01-12 07:54:26

Video
Format : AVC
Format/Info : Advanced Video Codec
Format profile : [email protected]
Format settings, CABAC : Yes
Format settings, ReFrames : 10 frames
Codec ID : avc1
Codec ID/Info : Advanced Video Coding
Duration : 1h 27mn
Bit rate mode : Variable
Bit rate : 1039 Kbps
Maximum bit rate : 5918 Kbps
Width : 720 pixels
Height : 352 pixels
Display aspect ratio : 1.860
Frame rate mode : Constant
Frame rate : 29.970 fps
Resolution : 24 bits
Colorimetry : 4:2:0
Scan type : Progressive
Bits/(Pixel*Frame) : 0.137
Stream size : 647 MiB (92%)
Title : Video
Writing library : x264 core 60 r900 a9af942

Audio
Format : AAC
Format/Info : Advanced Audio Codec
Format version : Version 4
Format profile : LC
Format settings, SBR : Yes
Format settings, PS : No
Codec ID : 40
Duration : 1h 27mn
Bit rate mode : Variable
Bit rate : 81.7 Kbps
Maximum bit rate : 104 Kbps
Channel(s) : 2 channels
Channel positions : L R
Sampling rate : 48.0 KHz
Resolution : 16 bits
Stream size : 50.9 MiB (7%)
Title : English
Language : English

Notes : Convert to DVD with Nero

related torrents

Torrent name

health leech seeds Size
 


comments (0)

Main Menu