Sci-Fi

The Cell 2 2009 DVDRIP XviD ZEKTORM

  • Download 5x Faster
  • Download torrent
  • Direct Download
  • Rate this torrent +  |  -
The Cell 2 2009 DVDRIP XviD ZEKTORM

Anonymous and Direct Download 300GB+ free


Torrent info

Name:The Cell 2 2009 DVDRIP XviD ZEKTORM

Total Size: 703.73 MB

Magnet: Magnet Link

Seeds: 9

Leechers: 3

Stream: Watch Online @ Movie4u

Last Updated: 0000-00-00 00:00:00 (Update Now)

Torrent added: 2009-08-29 14:41:38




Torrent Files List


READ.hlp (Size: 703.73 MB) (Files: 5)

 READ.hlp

11.42 KB

 Subs

  TC2-ZEKTORM.idx

37.78 KB

  TC2-ZEKTORM.sub

2.40 MB

 TC2-ZEKTORM.avi

701.28 MB

 Torrent downloaded from Demonoid.com.txt

0.05 KB
 

Announce URL: http://inferno.demonoid.com:3414/announce

Torrent description

Format : AVI
File size : 701 MiB
Duration : 1h 33mn
Overall bit rate : 1051 Kbps
Subtitles : English (Format: VobSub)
Source : DVD NTSC

Video
Format : MPEG-4 Visual
Format profile : Streaming [email protected]
Codec ID : XVID
Codec ID/Hint : XviD
Duration : 1h 33mn
Bit rate : 929 Kbps
Width : 720 pixels
Height : 416 pixels
Display aspect ratio : 16/9
Frame rate : 23.976 fps
Resolution : 24 bits
Colorimetry : 4:2:0
Scan type : Progressive
Bits/(Pixel*Frame) : 0.129
Stream size : 620 MiB (88%)
Writing library : XviD

Audio
Format : MPEG Audio
Format version : Version 1
Format profile : Layer 3
Codec ID : 55
Codec ID/Hint : MP3
Duration : 1h 33mn
Bit rate mode : Variable
Bit rate : 108 Kbps
Minimum bit rate : 128 Kbps
Channel(s) : 2 channels
Sampling rate : 48.0 KHz
Resolution : 16 bits
Video delay : 96ms
Stream size : 72.3 MiB (10%)
Writing library : LAME3.98r
Encoding settings : ABR

related torrents

Torrent name

health leech seeds Size
 


comments (0)

Main Menu