Sci-Fi

The man from earth 2008 Deutsch DVDrip Xvid [mnvv2 info]

  • Download 5x Faster
  • Download torrent
  • Direct Download
  • Rate this torrent +  |  -
The man from earth 2008 Deutsch DVDrip Xvid [mnvv2 info]

Free and Direct Download with Usenet 300GB+ free


Torrent info

Name:The man from earth 2008 Deutsch DVDrip Xvid [mnvv2 info]

Total Size: 699.05 MB

Magnet: Magnet Link

Seeds: 0

Leechers: 0

Stream: Watch Online @ Movie4u

Last Updated: 2010-02-14 15:59:00 (Update Now)

Torrent added: 2009-08-29 14:27:32




Torrent Files List


info.txt (Size: 699.05 MB) (Files: 3)

 info.txt

2.94 KB

 The man from Earth.avi

699.03 MB

 w200.jpg

16.14 KB
 

Announce URL: http://announce.mnvv2.info/announce.php

Torrent description

The.man.from.earth.2008.Deutsch.DVDrip.Xvid
The Man from Earth

Science Fiction/Drama
FSK: Freigegeben ab 16 Jahren - 90 Min.
DVD-Start: 18.12.2008


Professor Oldman wechselt den Wohnsitz, Freunde und Kollegen nahen zum Abschied, um ihm beim Packen zu helfen und ein letztes Gläschen zu trinken. An Oldmans reichem Schatz antiker Artefakte entzündet sich eine Debatte, in deren Verlauf der Professor den Freunden eröffnet, seit 14000 Jahren unsterblich auf Erden zu wandeln und vor allem deshalb jede Dekade umzuziehen, damit keiner merkt, wie er nicht altert. Kritische Geister und Schulweise, die sie nun mal sind, versuchen die Freunde vergeblich, die Behauptung zu erschüttern.
Was würde man eine Person fragen, die man seit Jahren kennt und befreundet ist, die behauptet nicht zu altern und seit 14000 Jahren auf der Erde lebt? Die seit Jahrtausenden immer weiter zieht, wenn der Zeitpunkt gekommen ist. Was muss eine solche Person alles wissen? Welche Dinge und Katastrophen hat sie miterlebt? Gibt es mehrere von ihnen? Kann sie sich verlieben?


Format : AVI
Format/Info : Audio Video Interleave
Dateigre : 699 MiB
Duration : 1h 23min
Gesamte Bitrate : 1170 Kbps
Verwendetes Programm : VirtualDubMod 1.5.10.2 (build 2540/release)
verwendete Encoder-Bibliothek : VirtualDubMod build 2540/release

Video
Format : MPEG-4 Visual
Format profile : Streaming Video@L1
Format settings, BVOP : Ja
Format settings, QPel : Nein
Format settings, GMC : No warpoints
Format settings, Matrix : Default
Codec ID : XVID
Codec ID/Hint : XviD
Duration : 1h 23min
Bitrate : 1013 Kbps
Breite : 608 Pixel
Höhe : 336 Pixel
Bildseitenverhältnis : 16/9
Bildwiederholungsrate : 25.000 FPS
Auflösung : 8 bits
Colorimetry : 4:2:0
Scan type : Progressive
Bits/(Pixel*Frame) : 0.198
Stream size : 605 MiB
verwendete Encoder-Bibliothek : XviD 1.1.2 (UTC 2006-11-01)

Audio
Format : MPEG Audio
Format version : Version 1
Format profile : Layer 3
Codec ID : 55
Codec ID/Hint : MP3
Duration : 1h 23min
Bitraten-Modus : Variable
Bitrate : 144 Kbps
Nominal bit rate : 140 Kbps
Kanäle : 2 Kanäle
Samplingrate : 48.0 KHz
Auflösung : 16 bits
Stream size : 86.1 MiB
verwendete Encoder-Bibliothek : LAME3.90.
Kodierungseinstellungen : ABR

related torrents

Torrent name

health leech seeds Size
 

comments (0)

Main Menu