Sci-Fi

THE ISLAND DEWSTRR

  • Download 5x Faster
  • Download torrent
  • Direct Download
  • Rate this torrent +  |  -
THE ISLAND DEWSTRR

Anonymous and Free Direct Download


Torrent info

Name:THE ISLAND DEWSTRR

Total Size: 1.04 GB

Magnet: Magnet Link

Seeds: 0

Leechers: 0

Stream: Watch Online @ Movie4u

Last Updated: 2009-12-02 13:15:45 (Update Now)

Torrent added: 2009-08-29 14:23:47



VPN For Torrents

Torrent Files List


THE ISLAND.DEWSTRR.avi (Size: 1.04 GB) (Files: 10)

 THE ISLAND.DEWSTRR.avi

1.04 GB

 Torrent_downloaded_from_Demonoid.com.txt

0.05 KB

 the island 1.jpg

19.33 KB

 the island 10.jpg

27.67 KB

 the island 4.jpg

29.94 KB

 the island 5.jpg

18.53 KB

 the island 6.jpg

27.79 KB

 the island 7.jpg

11.88 KB

 the island 8.jpg

30.58 KB

 the island 9.jpg

29.86 KB
 

Announce URL: http://inferno.demonoid.com:3407/announce

Torrent description

Movies : Sci-Fi : DVD Rip : English
Lincoln Six-Echo (Ewan McGregor) and Jordan Two-Delta (Scarlett Johansson) live in a contaminate-free facility to protect them from a worldwide disease. Everyone in the facility has been told that "The Island" is the only place on earth that has not been infected. All the residents want to go to "The Island," but the only way to be chosen is by winning the lottery. Starkweather (Michael Clarke Duncan) wins a trip to "The Island" and is sent on his way. Lincoln has an inquiring mind and wants to know more by exploring the inner workings of the facility. Lincoln discovers

http://www.imdb.com/title/tt0399201/

Video
Format : MPEG-4 Visual
Format settings, BVOP : Yes
Format settings, QPel : No
Format settings, GMC : No warppoints
Format settings, Matrix : Default
Muxing mode : Packed bitstream
Codec ID : DX50
Codec ID/Hint : DivX 5
Duration : 2h 15mn
Bit rate : 900 Kbps
Width : 672 pixels
Height : 288 pixels
Display aspect ratio : 2.35
Frame rate : 23.976 fps
Resolution : 24 bits
Colorimetry : 4:2:0
Scan type : Progressive
Bits/(Pixel*Frame) : 0.194
Stream size : 874 MiB (82%)
Title : Main
Writing library : DivX 6.8.0 (UTC 2007-12-04)

Audio
Format : AC-3
Format/Info : Audio Coding 3
Format profile : Dolby Digital
Codec ID : 2000
Duration : 2h 15mn
Bit rate mode : Constant
Bit rate : 192 Kbps
Channel(s) : 2 channels
Channel positions : L R
Sampling rate : 48.0 KHz
Video delay : 129ms
Stream size : 186 MiB (17%)
Alignment : Split accross interleaves
Interleave, duration : 42 ms (1.00 video frame)
Interleave, preload duration : 500 ms
Title : Audio - en

General
Complete name : THE ISLAND.DEWSTRR\Torrent_downloaded_from_Demonoid.com.txt
File size : 47.0 Bytes

Image
Format : JPEG
Width : 499 pixels
Height : 212 pixels
Resolution : 24 bits

Image
Format : JPEG
Width : 506 pixels
Height : 215 pixels
Resolution : 24 bits

Image
Format : JPEG
Width : 507 pixels
Height : 221 pixels
Resolution : 24 bits

Image
Format : JPEG
Width : 516 pixels
Height : 219 pixels
Resolution : 24 bits

Image
Format : JPEG
Width : 515 pixels
Height : 217 pixels
Resolution : 24 bits

Image
Format : JPEG
Width : 513 pixels
Height : 220 pixels
Resolution : 24 bits

Image
Format : JPEG
Width : 509 pixels
Height : 221 pixels
Resolution : 24 bits

Image
Format : JPEG
Width : 508 pixels
Height : 217 pixels
Resolution : 24 bits

related torrents

Torrent name

health leech seeds Size

THE RELIC DEWSTRR

1 3 1.09 GB 0
 


comments (0)

Main Menu