Sci-Fi

The Guyver 2 Dark Hero (1994) dvdrip [

  • Download 5x Faster
  • Download torrent
  • Direct Download
  • Rate this torrent +  |  -
The Guyver 2 Dark Hero (1994) dvdrip [

Free and Direct Download with Usenet.nl 300GB+ free


Torrent info

Name:The Guyver 2 Dark Hero (1994) dvdrip [

Total Size: 699.89 MB

Magnet: Magnet Link

Seeds: 0

Leechers: 0

Stream: Watch Online @ Movie4u

Last Updated: 2015-10-13 19:03:45 (Update Now)

Torrent added: 2009-08-29 14:15:40





Torrent Files List


The Guyver 2 - The Dark Hero.avi.part01.rar (Size: 699.89 MB) (Files: 51)

 The Guyver 2 - The Dark Hero.avi.part01.rar

14.31 MB

 The Guyver 2 - The Dark Hero.avi.part01.sfv

6.74 KB

 The Guyver 2 - The Dark Hero.avi.part02.rar

14.31 MB

 The Guyver 2 - The Dark Hero.avi.part03.rar

14.31 MB

 The Guyver 2 - The Dark Hero.avi.part04.rar

14.31 MB

 The Guyver 2 - The Dark Hero.avi.part05.rar

14.31 MB

 The Guyver 2 - The Dark Hero.avi.part06.rar

14.31 MB

 The Guyver 2 - The Dark Hero.avi.part07.rar

14.31 MB

 The Guyver 2 - The Dark Hero.avi.part08.rar

14.31 MB

 The Guyver 2 - The Dark Hero.avi.part09.rar

14.31 MB

 The Guyver 2 - The Dark Hero.avi.part10.rar

14.31 MB

 The Guyver 2 - The Dark Hero.avi.part11.rar

14.31 MB

 The Guyver 2 - The Dark Hero.avi.part12.rar

14.31 MB

 The Guyver 2 - The Dark Hero.avi.part13.rar

14.31 MB

 The Guyver 2 - The Dark Hero.avi.part14.rar

14.31 MB

 The Guyver 2 - The Dark Hero.avi.part15.rar

14.31 MB

 The Guyver 2 - The Dark Hero.avi.part16.rar

14.31 MB

 The Guyver 2 - The Dark Hero.avi.part17.rar

14.31 MB

 The Guyver 2 - The Dark Hero.avi.part18.rar

14.31 MB

 The Guyver 2 - The Dark Hero.avi.part19.rar

14.31 MB

 The Guyver 2 - The Dark Hero.avi.part20.rar

14.31 MB

 The Guyver 2 - The Dark Hero.avi.part21.rar

14.31 MB

 The Guyver 2 - The Dark Hero.avi.part22.rar

14.31 MB

 The Guyver 2 - The Dark Hero.avi.part23.rar

14.31 MB

 The Guyver 2 - The Dark Hero.avi.part24.rar

14.31 MB

 The Guyver 2 - The Dark Hero.avi.part25.rar

14.31 MB

 The Guyver 2 - The Dark Hero.avi.part26.rar

14.31 MB

 The Guyver 2 - The Dark Hero.avi.part27.rar

14.31 MB

 The Guyver 2 - The Dark Hero.avi.part28.rar

14.31 MB

 The Guyver 2 - The Dark Hero.avi.part29.rar

14.31 MB

 The Guyver 2 - The Dark Hero.avi.part30.rar

14.31 MB

 The Guyver 2 - The Dark Hero.avi.part31.rar

14.31 MB

 The Guyver 2 - The Dark Hero.avi.part32.rar

14.31 MB

 The Guyver 2 - The Dark Hero.avi.part33.rar

14.31 MB

 The Guyver 2 - The Dark Hero.avi.part34.rar

14.31 MB

 The Guyver 2 - The Dark Hero.avi.part35.rar

14.31 MB

 The Guyver 2 - The Dark Hero.avi.part36.rar

14.31 MB

 The Guyver 2 - The Dark Hero.avi.part37.rar

14.31 MB

 The Guyver 2 - The Dark Hero.avi.part38.rar

14.31 MB

 The Guyver 2 - The Dark Hero.avi.part39.rar

14.31 MB

 The Guyver 2 - The Dark Hero.avi.part40.rar

14.31 MB

 The Guyver 2 - The Dark Hero.avi.part41.rar

14.31 MB

 The Guyver 2 - The Dark Hero.avi.part42.rar

14.31 MB

 The Guyver 2 - The Dark Hero.avi.part43.rar

14.31 MB

 The Guyver 2 - The Dark Hero.avi.part44.rar

14.31 MB

 The Guyver 2 - The Dark Hero.avi.part45.rar

14.31 MB

 The Guyver 2 - The Dark Hero.avi.part46.rar

14.31 MB

 The Guyver 2 - The Dark Hero.avi.part47.rar

14.31 MB

 The Guyver 2 - The Dark Hero.avi.part48.rar

14.31 MB

 The Guyver 2 - The Dark Hero.avi.part49.rar

13.24 MB

 The Guyver 2 - Dark Hero.nfo

1.92 KB
 

tracker

leech seeds
 

Torrent description

General
Complete name : C:\Torrent Creation\New Folder (2)\The Guyver 2 - The Dark Hero.avi.avi
Format : AVI
Format/Info : Audio Video Interleave
File size : 700 MiB
Duration : 1h 35mn
Overal bit rate : 1024 Kbps
Writing application : Nandub v1.0rc2
Writing library : Nandub build 1852/release

Video
Format : MPEG-4 Visual
Format settings, BVOP : Yes
Format settings, QPel : No
Format settings, GMC : No warppoints
Format settings, Matrix : Default
Codec ID : DX50
Codec ID/Hint : DivX 5
Duration : 1h 35mn
Bit rate : 885 Kbps
Width : 480 pixels
Height : 368 pixels
Display aspect ratio : 4/3
Frame rate : 25.000 fps
Resolution : 8 bits
Scan type : Progressive
Bits/(Pixel*Frame) : 0.200
Stream size : 605 MiB
Writing library : DivX 5.0.2 (UTC 2002-05-16)

Audio
Format : MPEG Audio
Format version : Version 1
Format profile : Layer 3
Codec ID : 55
Codec ID/Hint : MP3
Duration : 1h 35mn
Bit rate mode : Variable
Bit rate : 126 Kbps
Nominal bit rate : 128 Kbps
Channel(s) : 2 channels
Sampling rate : 48.0 KHz
Resolution : 16 bits
Stream size : 86.0 MiB
Writing library : LAME3.92
Encoding settings : ABR

Link: http://www.imdb.com/title/tt0109965/

related torrents

Torrent name

health leech seeds Size
 

comments (0)

Main Menu