Sci-Fi

The Core [[email protected]][h33t][cybermonk]

  • Download 5x Faster
  • Download torrent
  • Direct Download
  • Rate this torrent +  |  -

Torrent info

Name:The Core [[email protected]][h33t][cybermonk]

Total Size: 1.25 GB

Magnet: Magnet Link

Seeds: 0

Leechers: 0

Stream: Watch Online @ Movie4u

Last Updated: 2012-01-09 09:42:56 (Update Now)

Torrent added: 2009-08-29 14:08:17



VPN For Torrents

Torrent Files List


The Core [[email protected]][h33t][cybermonk].md5 (Size: 1.25 GB) (Files: 6)

 The Core [[email protected]][h33t][cybermonk].md5

0.21 KB

 The Core [[email protected]][h33t][cybermonk].sfv

0.26 KB

 The Core.mp4

1.25 GB

 The Core.txt

2.01 KB

 TheCore.SHA-1.txt

0.11 KB

 tracked_by_h33t_com.txt

0.02 KB
 

Announce URL:

Torrent description

*********************************************************
General
*********************************************************
Complete name : The Core.mp4
Format : MPEG-4
Format profile : Base Media
Codec ID : isom
File size : 1.25 GiB
Duration : 2h 9mn
Overall bit rate : 1384 Kbps
Movie name : THE CORE
*********************************************************
Video
*********************************************************
Format : AVC
Format/Info : Advanced Video Codec
Format profile : [email protected]
Format settings, CABAC : No
Format settings, ReFrames : 1 frame
Codec ID : avc1
Duration : 2h 9mn
Bit rate mode : Variable
Bit rate : 1220 Kbps
Width : 720 pixels
Height : 480 pixels
Display aspect ratio : 1.500
Frame rate mode : Constant
Frame rate : 25.000 fps
Standard : NTSC
Colorimetry : 4:2:0
Scan type : Progressive
Bits/(Pixel*Frame) : 0.141
Stream size : 1.10 GiB (88%)
********************************************************
Audio
********************************************************
Format : AAC
Format/Info : Advanced Audio Codec
Format version : Version 4
Format profile : LC
Format settings, SBR : No
Codec ID : 40
Duration : 2h 9mn
Bit rate mode : Variable
Bit rate : 160 Kbps
Channel(s) : 2 channels
Channel positions : L R
Sampling rate : 48.0 KHz
Resolution : 16 bits
Stream size : 148 MiB (12%)
********************************************************

related torrents

Torrent name

health leech seeds Size
 


comments (0)

Main Menu