Sci-Fi

The 6the Day[DVDRip][ENG][NLSUBS]

  • Download 5x Faster
  • Download torrent
  • Direct Download
  • Rate this torrent +  |  -
The 6the Day[DVDRip][ENG][NLSUBS]

Anonymous and Direct Download 300GB+ free


Torrent info

Name:The 6the Day[DVDRip][ENG][NLSUBS]

Total Size: 1.11 GB

Magnet: Magnet Link

Seeds: 0

Leechers: 0

Stream: Watch Online @ Movie4u

Last Updated: 2010-01-31 22:49:29 (Update Now)

Torrent added: 2009-08-29 14:00:02




Torrent Files List


The 6the Day.avi (Size: 1.11 GB) (Files: 1)

 The 6the Day.avi

1.11 GB
 

Announce URL: http://tracker.thepiratebay.org/announce

Torrent description

ACB-Team = http://acb-team.eu.tc/

Verenigde Staten / Canada
Science-Fiction / Thriller
123 minuten

geregisseerd door Roger Spottiswoode
met Arnold Schwarzenegger, Michael Rapaport en Tony Goldwyn

Helikopterpiloot Adam Gibson overleeft door een plaatsverwisseling met een vriend een aanslag op z\\\'n leven, en keert naar huis. Daar aangekomen ontdekt hij dat z\\\'n leven is overgenomen door een identieke kloon van hemzelf. Als de mensen die hier verantwoordelijk voor zijn er achter komen dat Gibson niet dood is, openen ze de jacht op hem om hun geheim te bewaren.

******************************************************

ondertitels Gelijmd/ingebaken in film

ENgels gesproken

******************************************************
General
Complete name :The 6the Day.avi
Format : AVI
Format/Info : Audio Video Interleave
File size : 1.11 GiB
Duration : 1h 58mn
Overall bit rate : 1 338 Kbps

Video
Format : MPEG-4 Visual
Format profile : [email protected]
Format settings, BVOP : No
Format settings, QPel : No
Format settings, GMC : No warppoints
Format settings, Matrix : Default (H.263)
Codec ID : XVID
Codec ID/Hint : XviD
Duration : 1h 58mn
Bit rate : 1 199 Kbps
Width : 640 pixels
Height : 360 pixels
Display aspect ratio : 16/9
Frame rate : 25.000 fps
Resolution : 24 bits
Colorimetry : 4:2:0
Scan type : Progressive
Bits/(Pixel*Frame) : 0.208
Stream size : 1 017 MiB (90%)
Writing library : Magic0432

Audio
Format : AC-3
Format/Info : Audio Coding 3
Codec ID : 2000
Duration : 1h 58mn
Bit rate mode : Constant
Bit rate : 128 Kbps
Channel(s) : 6 channels
Channel positions : Front: L C R, Surround: L R, LFE
Sampling rate : 48.0 KHz
Stream size : 109 MiB (10%)
Alignment : Aligned on interleaves
Interleave, duration : 32 ms (0.80 video frame)

******************************************************

ACB-Team = http://acb-team.eu.tc/

related torrents

Torrent name

health leech seeds Size
 


comments (0)

Main Menu