Sci-Fi

THE 13TH FLOOR DEWSTRR

  • Download 5x Faster
  • Download torrent
  • Direct Download
  • Rate this torrent +  |  -
THE 13TH FLOOR DEWSTRR

Anonymous and Free Direct Download 300GB+


Torrent info

Name:THE 13TH FLOOR DEWSTRR

Total Size: 1.01 GB

Magnet: Magnet Link

Seeds: 2

Leechers: 1

Stream: Watch Online @ Movie4u

Last Updated: 2011-06-01 04:24:14 (Update Now)

Torrent added: 2009-08-29 13:59:45



VPN For Torrents

Torrent Files List


13TH 1.jpg (Size: 1.01 GB) (Files: 15)

 13TH 1.jpg

8.82 KB

 13TH 1.sfv

1.75 KB

 13TH 10.jpg

12.37 KB

 13TH 11.jpg

16.61 KB

 13TH 2.jpg

11.67 KB

 13TH 3.jpg

32.67 KB

 13TH 4.jpg

15.58 KB

 13TH 5.jpg

18.24 KB

 13TH 6.jpg

14.08 KB

 13TH 7.jpg

17.17 KB

 13TH 8.jpg

15.31 KB

 13TH 9.jpg

15.71 KB

 13TH FLOOR.NFO

2.90 KB

 THE 13TH FLOOR.divx

1.01 GB

 Torrent_downloaded_from_Demonoid.com.txt

0.05 KB
 

Announce URL: http://inferno.demonoid.com:3407/announce

Torrent description

THE 13TH FLOOR DVDRIP
Mystery Romance Sci-Fi Thriller
Hannon Fuller (Armin Mueller-Stahl) is the owner of a multi-billion dollar computer enterprise and the inventor of a newly completed virtual reality simulation [vr] of 1937 Los Angeles. Fuller is murdered when he finds out what the [vr] really is, his friend and protégé Douglas Hall (Craig Bierko) finds himself the primary suspect, and begins to doubt his own innocence, he begins to do a investigation himself by tracing fullers experience inside the [vr] and finding the letter fuller wrote and gave to Jerry Ashton, a bartender (Vincent D'Onofrio)to hold on to and give to Hall, Ashton reads the letter and finds out what the [vr] really is a virtual reality simulation within a virtual reality simulation

http://www.imdb.com/title/tt0139809/

Video
Format : MPEG-4 Visual
Format settings, BVOP : Yes
Format settings, QPel : No
Format settings, GMC : No warppoints
Format settings, Matrix : Default
Codec ID : DX50
Codec ID/Hint : DivX 5
Duration : 1h 40mn
Bit rate : 1 300 Kbps
Width : 712 pixels
Height : 304 pixels
Display aspect ratio : 2.35
Frame rate : 23.976 fps
Resolution : 24 bits
Colorimetry : 4:2:0
Scan type : Progressive
Bits/(Pixel*Frame) : 0.250
Stream size : 934 MiB (90%)
Title : Video
Writing library : DivX 6.8.2 (UTC 2008-05-17)

Audio
Format : MPEG Audio
Format version : Version 1
Format profile : Layer 3
Codec ID : 55
Codec ID/Hint : MP3
Duration : 1h 40mn
Bit rate mode : Constant
Bit rate : 128 Kbps
Channel(s) : 2 channels
Sampling rate : 48.0 KHz
Resolution : 16 bits
Stream size : 92.0 MiB (9%)
Alignment : Split accross interleaves
Interleave, duration : 42 ms (1.00 video frame)
Interleave, preload duration : 500 ms
Title : Audio
Writing library : LAME3.92

General
Complete name :THE 13TH FLOOR.DEWSTRR\THE 13TH FLOOR.sfv
File size : 444 Bytes


General
Complete name : THE 13TH FLOOR.DEWSTRR\Torrent_downloaded_from_Demonoid.com.txt
File size : 47.0 Bytes
THE 13TH FLOOR DEWSTRR preview 0
THE 13TH FLOOR DEWSTRR preview 1
THE 13TH FLOOR DEWSTRR preview 2
THE 13TH FLOOR DEWSTRR preview 3
THE 13TH FLOOR DEWSTRR preview 4
THE 13TH FLOOR DEWSTRR preview 5
THE 13TH FLOOR DEWSTRR preview 6
THE 13TH FLOOR DEWSTRR preview 7
THE 13TH FLOOR DEWSTRR preview 8
THE 13TH FLOOR DEWSTRR preview 9
THE 13TH FLOOR DEWSTRR preview 10
burned with windows [with a couple of other movies on a disk] and played on my philips divx ultra certified dvd player

related torrents

Torrent name

health leech seeds Size

THE 13TH WARRIOR DEWSTRR

5 11 1.09 GB 0

The 13th Floor

0 1 1.00 GB 0
 


comments (0)

Main Menu