Sci-Fi

Tank Girl 1995 {DvDRiP Xvid} [1337x] [blackjesus]

  • Download 5x Faster
  • Download torrent
  • Direct Download
  • Rate this torrent +  |  -
Tank Girl 1995 {DvDRiP Xvid} [1337x] [blackjesus]

Free and Direct Download with Usenet.nl 300GB+ free


Torrent info

Name:Tank Girl 1995 {DvDRiP Xvid} [1337x] [blackjesus]

Total Size: 699.43 MB

Magnet: Magnet Link

Seeds: 15

Leechers: 4

Stream: Watch Online @ Movie4u

Last Updated: 0000-00-00 00:00:00 (Update Now)

Torrent added: 2009-08-29 13:52:39





Torrent Files List


TankGirl.avi (Size: 699.43 MB) (Files: 6)

 TankGirl.avi

699.39 MB

 Tank_girl_poster.jpg

35.61 KB

 INFO.txt

1.26 KB

 Upload template.txt

0.48 KB

 BlAcKjEsUs.txt

0.39 KB

 1337x.org.txt

0.02 KB
 

Announce URL: http://nemesis.1337x.org/announce

Torrent description

Tank Girl (1995)







http://www.youtube.com/watch?v=qb8OqoMraMI
^^Trailer^^

http://www.imdb.com/title/tt0114614/
^^IMDB^^


Release Date: 23 June 1995 (UK)
Genre: Action | Comedy | Sci-Fi
Tagline: In 2033, justice rides a tank and wears lip gloss




Tank Girl (Rebecca) and her friends are the only remaining citizens living in the wasteland that is Earth, where all the remaining water is controlled by Water and Power, the mega corporation/government that runs the territory. While incarcerated at W + P, Tank Girl and her new friend Jet Girl break out and steal... a tank and a jet. After meeting some mutant kangaroo/humans, and rescuing her little girl (adopted by her friends), the kangaroos and the girls kick Water and Powers' butt.



Video
Format : MPEG-4 Visual
Format profile : Streaming [email protected]
Format settings, BVOP : Yes
Format settings, QPel : No
Format settings, GMC : No warppoints
Format settings, Matrix : Default (H.263)
Muxing mode : Packed bitstream
Codec ID : XVID
Codec ID/Hint : XviD
Duration : 1h 39mn
Bit rate : 860 Kbps
Width : 608 pixels
Height : 336 pixels
Display aspect ratio : 16/9
Frame rate : 25.000 fps
Resolution : 24 bits
Colorimetry : 4:2:0
Scan type : Progressive
Bits/(Pixel*Frame) : 0.168
Stream size : 612 MiB (88%)
Writing library : XviD 1.2.1 (UTC 2008-12-04)

Audio
Format : MPEG Audio
Format version : Version 1
Format profile : Layer 3
Codec ID : 55
Codec ID/Hint : MP3
Duration : 1h 39mn
Bit rate mode : Variable
Bit rate : 109 Kbps
Channel(s) : 2 channels
Sampling rate : 48.0 KHz
Resolution : 16 bits
Stream size : 77.9 MiB (11%)
Alignment : Aligned on interleaves
Interleave, duration : 24 ms (0.60 video frame)
Interleave, preload duration : 168 ms




related torrents

Torrent name

health leech seeds Size

tank girl 1995

0 1 700.29 MB 0
 

comments (0)

Main Menu