Sci-Fi

SPHERE DEWSTRR

  • Download 5x Faster
  • Download torrent
  • Direct Download
  • Rate this torrent +  |  -
SPHERE DEWSTRR

Anonymous and Free Direct Download 300GB+


Torrent info

Name:SPHERE DEWSTRR

Total Size: 1.42 GB

Magnet: Magnet Link

Seeds: 2

Leechers: 2

Stream: Watch Online @ Movie4u

Last Updated: 2009-12-02 12:57:50 (Update Now)

Torrent added: 2009-08-29 12:51:03



VPN For Torrents

Torrent Files List


SPHERE.divx (Size: 1.42 GB) (Files: 15)

 SPHERE.divx

1.42 GB

 SPHERE.NFO

2.90 KB

 SPHERE.sfv

1.53 KB

 SPR 1.jpg

20.17 KB

 SPR 10.jpg

12.40 KB

 SPR 2.jpg

11.10 KB

 SPR 3.jpg

24.00 KB

 SPR 4.jpg

17.84 KB

 SPR 5.jpg

15.77 KB

 SPR 6.jpg

21.65 KB

 SPR 7.jpg

14.59 KB

 SPR 8.jpg

15.31 KB

 SPR 9.jpg

15.98 KB

 SPR CP.jpg

32.87 KB

 Torrent_downloaded_from_Demonoid.com.txt

0.05 KB
 

Announce URL: http://inferno.demonoid.com:3411/announce

Torrent description

SPHERE DVDRIP 1998

Mystery | Sci-Fi | Thriller

In the middle of the South Pacific, a thousand feet below the surface of the water, a huge vessel rests on the ocean floor. Rushed to the scene is a group of American scientists who descend to the depths of the sea to investigate this astonishing discovery. What they find defies their imaginations and mocks their attempts at logical explanation. It is a massive spaceship, undamaged from it's fall from the sky-and at least three hundred years old but from the future but with all dead from injuries caused from murder and 1 thing alive: A SPHERE

SPHERE DEWSTRR preview 0

http://www.imdb.com/title/tt0120184/

Format : AVI
Format/Info : Audio Video Interleave
File size : 1.42 GiB
Duration : 2h 14mn
Overall bit rate : 1 512 Kbps

Video
Format : MPEG-4 Visual
Format settings, BVOP : Yes
Format settings, QPel : No
Format settings, GMC : No warppoints
Format settings, Matrix : Default
Codec ID : DX50
Codec ID/Hint : DivX 5
Duration : 2h 14mn
Bit rate : 1 119 Kbps
Width : 720 pixels
Height : 304 pixels
Display aspect ratio : 2.35
Frame rate : 23.976 fps
Resolution : 24 bits
Colorimetry : 4:2:0
Scan type : Progressive
Bits/(Pixel*Frame) : 0.213
Stream size : 1.05 GiB (74%)
Title : Video
Writing library : DivX 6.8.2 (UTC 2008-05-17)

Audio
Format : AC-3
Format/Info : Audio Coding 3
Codec ID : 2000
Duration : 2h 14mn
Bit rate mode : Constant
Bit rate : 384 Kbps
Channel(s) : 6 channels
Channel positions : Front: L C R, Surround: L R, LFE
Sampling rate : 48.0 KHz
Stream size : 369 MiB (25%)
Alignment : Split accross interleaves
Interleave, duration : 42 ms (1.00 video frame)
Interleave, preload duration : 500 ms
Title : Audio

General
Complete name : SPHERE\SPHERE.sfv
File size : 1.23 KiB

General
Complete name :SPHERE\Torrent_downloaded_from_Demonoid.com.txt
File size : 47.0 Bytes
SPHERE DEWSTRR preview 1
SPHERE DEWSTRR preview 2
SPHERE DEWSTRR preview 3
SPHERE DEWSTRR preview 4
SPHERE DEWSTRR preview 5
SPHERE DEWSTRR preview 6
SPHERE DEWSTRR preview 7
SPHERE DEWSTRR preview 8
SPHERE DEWSTRR preview 9
SPHERE DEWSTRR preview 10
burned with windows [with a couple of other movies on a disk] and played on my philips divx ultra certified dvd player
be sure to set your dvd player on the correct aspect ratio

related torrents

Torrent name

health leech seeds Size
 


comments (0)

Main Menu