Other

1946 Notorious dvdrip xvid eng mp3

  • Download 5x Faster
  • Download torrent
  • Direct Download
  • Rate this torrent +  |  -
1946 Notorious dvdrip xvid eng mp3

Anonymous and Free Direct Download 300GB+


Torrent info

Name:1946 Notorious dvdrip xvid eng mp3

Total Size: 1.34 GB

Magnet: Magnet Link

Seeds: 2

Leechers: 5

Stream: Watch Online @ Movie4u

Last Updated: 2010-03-17 12:50:20 (Update Now)

Torrent added: 2008-08-13 06:34:56



VPN For Torrents

Torrent Files List


1946.Notorious.dvdrip.xvid.eng.mp3.avi (Size: 1.34 GB) (Files: 4)

 1946.Notorious.dvdrip.xvid.eng.mp3.avi

1.34 GB

 Read.Me.nfo

2.76 KB

 Torrent downloaded from Demonoid.com.txt

0.05 KB

 Trackers.txt

0.30 KB
 

Announce URL: http://open.tracker.thepiratebay.org/announce

Torrent description

Review
Following the conviction of her German father for treason against the U.S., Alicia Huberman takes to drink and men. She is approached by a government agent (T.R. Devlin) who asks her to spy on a group of her father's Nazi friends operating out of Rio de Janeiro. A romance develops between Alicia and Devlin, but she starts to get too involved in her work.

Link
http://www.imdb.com/title/tt0038787/

Cast

Cary Grant ... T.R. Devlin

Ingrid Bergman ... Alicia Huberman
Claude Rains ... Alexander Sebastian
Louis Calhern ... Captain Paul Prescott
Leopoldine
Konstantin ... Madame Anna Sebastian (as Madame Konstantin)
Reinhold
Schünzel ... Dr. Anderson (as Reinhold Schunzel)
Moroni Olsen ... Walter Beardsley
Ivan Triesault ... Eric Mathis
Alex Minotis ... Joseph, Sebastian's Butler
Wally Brown ... Mr. Hopkins
Charles Mendl ... Commodore (as Sir Charles Mendl)
Ricardo Costa ... Dr. Julio Barbosa
Eberhard
Krumschmidt ... Emil Hupka
Fay Baker ... Ethel

Technical Stuff

Format : AVI
Format/Info : Audio Video Interleave
File size : 1.34 GiB
Duration : 1h 42mn
Overal bit rate : 1876 Kbps

Video
Format : MPEG-4 Visual
Format profile : [email protected]
Format settings, BVOP : No
Format settings, QPel : No
Format settings, GMC : 0 warppoint
Format settings, Matrix : Default
Codec ID : XVID
Codec ID/Hint : XviD
Duration : 1h 42mn
Bit rate : 1735 Kbps
Width : 640 pixels
Height : 480 pixels
Display aspect ratio : 4/3
Frame rate : 29.970 fps
Original frame rate : 29.969 fps
Resolution : 8 bits
Colorimetry : 4:2:0
Scan type : Progressive
Bits/(Pixel*Frame) : 0.188
Stream size : 1.24 GiB
Writing library : Magic0432

Audio
Format : MPEG Audio
Format version : Version 1 / Layer 3
Codec ID : 55
Codec ID/Hint : MP3
Duration : 1h 42mn
Bit rate mode : CBR
Bit rate : 128 Kbps
Channel(s) : 2 channels
Sampling rate : 44.1 KHz
Resolution : 16 bits
Stream size : 93.4 MiB
Writing library : LAME3.97

related torrents

Torrent name

health leech seeds Size
 


comments (0)

Main Menu