Comedy

Nothing to Lose 1997DvDrip DemonukNIKONRG

  • Download 5x Faster
  • Download torrent
  • Direct Download
  • Rate this torrent +  |  -
Nothing to Lose 1997DvDrip DemonukNIKONRG

Anonymous and Direct Download 300GB+ free


Torrent info

Name:Nothing to Lose 1997DvDrip DemonukNIKONRG

Total Size: 700.00 MB

Magnet: Magnet Link

Seeds: 0

Leechers: 0

Stream: Watch Online @ Movie4u

Last Updated: 2011-12-16 22:15:04 (Update Now)

Torrent added: 2008-08-13 06:34:44




Torrent Files List


Nothing to Lose-[1997][DvDrip]-Demonuk[NIKONRG].avi (Size: 700.00 MB) (Files: 3)

 Nothing to Lose-[1997][DvDrip]-Demonuk[NIKONRG].avi

700.00 MB

 Nothing to Lose.info.txt

1.42 KB

 Torrent downloaded from Demonoid.com.txt

0.05 KB
 

Announce URL: http://inferno.demonoid.com:3392/announce

Torrent description

Nothing to Lose-[1997][DvDrip]-Demonuk[NIKONRG]
__________________
MOVIE INFORMATION
__________________
TITLE.............:Nothing to Lose
DIRECTOR..........:Steve Oedekerk
YEAR..............: 1997
RUNTIME...........:1h 33mn
GENRE.............:Action | Adventure | Comedy | Crime
FORMAT.............:AVI
Format/Info.........:Audio Video Interleave
File size..........:700 MiB
Duration..........:1h 33mn
Overal bit rate....1042 Kbps
SOURCE............:PAL DVD
SIZE..............:700mb
IMDB..............: http://www.imdb.com/title/tt0119807/
USER RATING............: 6.4/10 (11,680 votes)
__________________
VIDEO INFORMATION
__________________
Format: MPEG-4 Visual
Format profile: Streaming [email protected]
Format settings, BVOP: Yes
Format settings, QPel: No
Format settings, GMC: No warppoints
Format settings, Matrix: Custom
Codec ID: XVID
Codec ID/Hint: XviD
Duration: 1h 33mn
Bit rate: 914 Kbps
Width: 720 pixels
Height: 400 pixels
Display aspect ratio: 16/9
Frame rate: 25.000 fps
Resolution: 8 bits
Colorimetry: 4:2:0
Scan type: Progressive
Bits/(Pixel*Frame): 0.127
Stream size: 614 MiB (88%)

__________________
AUDIO INFORMATION
__________________
Format: MPEG Audio
Format version: Version 1
Format profile: Layer 3
Codec ID: 55
Codec ID/Hint: MP3
Duration: 1h 33mn
Bit rate mode: Variable
Bit rate: 115 Kbps
Minimum bit rate: 128 Kbps
Channel(s): 2 channels
Sampling rate: 48.0 KHz
Resolution: 16 bits
Stream size: 77.0 MiB (11%)
Writing library: LAME3.97
Encoding settings: ABR

__________________
MAIN CAST
__________________
Martin Lawrence... Terrance Paul Davidson
Tim Robbins... Nick Beam
John C. McGinley... Davis 'Rig' Lanlow
Giancarlo Esposito... Charlie Dunt
Kelly Preston... Ann Beam


__________________
PLOT OUTLINE
__________________
When a man (Robbins) believes he has discovered that his wife is having an affair with his boss,
it sets off a chain reaction of events. First he wanders into a ghetto where a robber (Lawrence)
tries to take his money at gunpoint, but instead sets a wild ride from California to Arizona.
The two eventually become reluctant friends. Discussing robbery techniques,
they decide to get back at the boss by robbing an office safe containing hundreds of thousands
of dollars. Life is further complicated by another pair of robbers who chase the first two for infringing
on their territory.
__________________
Info hash:A4A570D93A34523052160AF544E5CF551F866368
Tracker announce: http://inferno.demonoid.com:3392/announce
Tracker announce: http://open.tracker.thepiratebay.org:80/announce
Tracker Scrape: http://inferno.demonoid.com:3392/scrape

__________________
Contents of download:

Nothing to Lose-[1997][DvDrip]-Demonuk[NIKONRG].avi (700MB)
Nothing to Lose.info.txt (1.14Kb)
Torrent downloaded from Demonoid.com.txt (47bytes)
___________________________________________________________________
> For Detailed Information on New Releases and Popular Request Click Here


^>>>>>>>>>>>>>>>>>>>>>>>>>>>>>>>>>>>>>>>>>>>>>>>>>>>>>>>>>>>>>>>>>>.^
^......................................................................................................@....................@......@.@@@.@...............^
^............@@...........@....@....@.......@...............................................@..................@......@................@...........^
^............@.@..........@...........@......@.......@@@@........ @..@.@.@......@...............@.......@..................@.........^
^............@..@.........@....@....@.....@....@..............@.....@@.........@......@............@........@...................@........^
^............@...@........@....@....@....@....@................@....@.............@.......@........@..........@...................@........^
^............@....@.......@....@....@...@....@..................@...@.............@.........@.....@...........@..................@.........^
^............@.....@......@....@....@@......@....................@..@.............@...........@@..............@@@@@@@............^
^............@......@.....@....@....@@......@....................@..@.............@.........@.....@...........@..............................^
^............@.......@....@....@....@...@....@...................@..@.............@........@.........@........@..............................^
^............@........@...@....@....@....@....@.................@...@.............@......@............@.......@..............................^
^............@.........@..@....@....@.....@....@...............@....@.............@....@................@.....@..............................^
^............@..........@.@....@....@......@....@.............@.....@.............@...@...................@...@..............................^
^............@...........@@....@....@.......@.....@.@.@..@......@.............@..@.....................@..@..............................^
^<<<<<<<<<<<<<<<<<<<<<<<<<<<<<<<<<<<<<<<<<<<<<<<<<<<<<<<<<<<<<<<<<<.^

related torrents

Torrent name

health leech seeds Size

Nothing To Lose

1 8 649.24 MB 0
 


comments (0)

Main Menu