Sci-Fi

SIGNS DEWSTRR

  • Download 5x Faster
  • Download torrent
  • Direct Download
  • Rate this torrent +  |  -
SIGNS DEWSTRR

Anonymous and Free Direct Download 300GB+


Torrent info

Name:SIGNS DEWSTRR

Total Size: 1.09 GB

Magnet: Magnet Link

Seeds: 0

Leechers: 0

Stream: Watch Online @ Movie4u

Last Updated: 2010-01-10 16:48:14 (Update Now)

Torrent added: 2009-08-29 12:42:14



VPN For Torrents

Torrent Files List


SGNS 1.jpg (Size: 1.09 GB) (Files: 15)

 SGNS 1.jpg

29.05 KB

 SGNS 1.sfv

1.30 KB

 SGNS 10.jpg

17.48 KB

 SGNS 2.jpg

10.31 KB

 SGNS 3.jpg

20.56 KB

 SGNS 4.jpg

13.45 KB

 SGNS 5.jpg

11.20 KB

 SGNS 6.jpg

11.91 KB

 SGNS 7.jpg

8.90 KB

 SGNS 8.jpg

13.46 KB

 SGNS 9.jpg

18.78 KB

 SGNS CP.jpg

31.56 KB

 SIGNS.avi

1.09 GB

 SIGNS.NFO

2.92 KB

 Torrent_downloaded_from_Demonoid.com.txt

0.05 KB
 

Announce URL: http://inferno.demonoid.com:3413/announce

Torrent description

SIGNS 2002 DVDRIP

Mystery | Sci-Fi | Thriller

After the death of his wife in a freak accident, Reverend Graham Hess [Mel Gibson] questions his faith and even leaves the church. Six months later, he discovers a gigantic crop circle in his yard. Similar events happen all over the world. Graham's children think it's aliens, his brother [Joaquin Phoenix] thinks it's pranksters, and Graham doesn't know what to think. However, as more and more strange events occur, he realizes something big is coming, and it's probably not going to be friendly

SIGNS DEWSTRR preview 0

http://www.imdb.com/title/tt0286106/

Format : AVI
Format/Info : Audio Video Interleave
File size : 1.09 GiB
Duration : 1h 46mn
Overall bit rate : 1 471 Kbps
Writing application : VirtualDubMod 1.5.4.1 (build 2178/release)
Writing library : VirtualDubMod build 2178/release

Video
Format : MPEG-4 Visual
Format settings, BVOP : Yes
Format settings, QPel : No
Format settings, GMC : No warppoints
Format settings, Matrix : Default
Codec ID : DX50
Codec ID/Hint : DivX 5
Duration : 1h 46mn
Bit rate : 1 017 Kbps
Width : 640 pixels
Height : 368 pixels
Display aspect ratio : 16/9
Frame rate : 23.976 fps
Resolution : 24 bits
Colorimetry : 4:2:0
Scan type : Progressive
Bits/(Pixel*Frame) : 0.180
Stream size : 774 MiB (69%)
Writing library : DivX 2816

Audio
Format : AC-3
Format/Info : Audio Coding 3
Codec ID : 2000
Duration : 1h 46mn
Bit rate mode : Constant
Bit rate : 448 Kbps
Channel(s) : 6 channels
Channel positions : Front: L C R, Surround: L R, LFE
Sampling rate : 48.0 KHz
Stream size : 341 MiB (30%)
Alignment : Split accross interleaves
Interleave, duration : 96 ms (2.30 video frames)
Interleave, preload duration : 96 ms

General
Complete name : SIGNS\SGNS 1.sfv
File size : 1.17 KiB

General
Complete name : SIGNS\Torrent_downloaded_from_Demonoid.com.txt
File size : 47.0 Bytes
SIGNS DEWSTRR preview 1
SIGNS DEWSTRR preview 2
SIGNS DEWSTRR preview 3
SIGNS DEWSTRR preview 4
SIGNS DEWSTRR preview 5
SIGNS DEWSTRR preview 6
SIGNS DEWSTRR preview 7
SIGNS DEWSTRR preview 8
SIGNS DEWSTRR preview 9
SIGNS DEWSTRR preview 10
burned with windows [with a couple of other movies on a disk] and played on my philips divx ultra certified dvd player
be sure to set your dvd player on the correct aspect ratio

related torrents

Torrent name

health leech seeds Size
 


comments (0)

Main Menu