Sci-Fi

SCREAMERS [1] DEWSTRR

  • Download 5x Faster
  • Download torrent
  • Direct Download
  • Rate this torrent +  |  -
SCREAMERS [1] DEWSTRR

Download FREE And Anonymously


Torrent info

Name:SCREAMERS [1] DEWSTRR

Total Size: 1.09 GB

Magnet: Magnet Link

Seeds: 1

Leechers: 1

Stream: Watch Full Movie @ Movie4u

Last Updated: 2010-03-09 01:19:54 (Update Now)

Torrent added: 2009-08-29 12:37:57



VPN For Torrents

Torrent Files List


SCR 1 1.jpg (Size: 1.09 GB) (Files: 14)

 SCR 1 1.jpg

15.35 KB

 SCR 1 1.sfv

1.68 KB

 SCR 1 10.jpg

8.67 KB

 SCR 1 2.jpg

18.09 KB

 SCR 1 3.jpg

10.49 KB

 SCR 1 4.jpg

12.22 KB

 SCR 1 5.jpg

14.99 KB

 SCR 1 6.jpg

20.39 KB

 SCR 1 7.jpg

28.84 KB

 SCR 1 8.jpg

14.04 KB

 SCR 1 9.jpg

22.15 KB

 SCR 1 CP.jpg

55.50 KB

 SCREAMERS.avi

1.09 GB

 Torrent_downloaded_from_Demonoid.com.txt

0.05 KB
 

Announce URL: http://inferno.demonoid.com:3411/announce

Torrent description

SCREAMERS [1] 1995 DVDRIP ENGLISH

Action | Adventure | Drama | Horror | Sci-Fi | Thriller

(SIRIUS 6B, Year 2078) On a distant mining planet ravaged by a decade of war, scientists have created the perfect weapon: a blade-wielding, self-replicating race of killing devices known as Screamers designed for one purpose only, to hunt down and destroy all enemy life forms But man's greatest weapon has continued to evolve without any human guidance, and now it has devised a new mission: to obliterate all life. Col. Hendricksson (Peter Weller) is commander of a handful of Alliance soldiers still alive on Sirius 6B. Betrayed by his own political leaders and disgusted by the atrocities of this never-ending war, Hendricksson decides he must negotiate a separate peace with the New Economic Bloc's decimated forces. But to do so, he will have to cross a treacherous wasteland where the deadliest threat comes from the very weapons he helped to create.

SCREAMERS [1] DEWSTRR preview 0

http://www.imdb.com/title/tt0114367/

Format : AVI
Format/Info : Audio Video Interleave
File size : 1.09 GiB
Duration : 1h 48mn
Overall bit rate : 1 446 Kbps
Writing application : VirtualDubMod 1.5.4.1 (build 2178/release)
Writing library : VirtualDubMod build 2178/release

Video
Format : MPEG-4 Visual
Format settings, BVOP : Yes
Format settings, QPel : No
Format settings, GMC : No warppoints
Format settings, Matrix : Default
Muxing mode : Packed bitstream
Codec ID : DX50
Codec ID/Hint : DivX 5
Duration : 1h 48mn
Bit rate : 1 247 Kbps
Width : 576 pixels
Height : 432 pixels
Display aspect ratio : 4/3
Frame rate : 23.976 fps
Resolution : 24 bits
Colorimetry : 4:2:0
Scan type : Progressive
Bits/(Pixel*Frame) : 0.209
Stream size : 967 MiB (86%)
Writing library : DivX 2816

Audio
Format : AC-3
Format/Info : Audio Coding 3
Format profile : Dolby Digital
Codec ID : 2000
Duration : 1h 48mn
Bit rate mode : Constant
Bit rate : 192 Kbps
Channel(s) : 2 channels
Channel positions : L R
Sampling rate : 48.0 KHz
Stream size : 149 MiB (13%)
Alignment : Split accross interleaves
Interleave, duration : 96 ms (2.30 video frames)
Interleave, preload duration : 96 ms

General
Complete name : SCREAMERS [1]. DEWSTRR\SCR 1 1.sfv
File size : 1.68 KiB

General
Complete name : SCREAMERS [1]. DEWSTRR\Torrent_downloaded_from_Demonoid.com.txt
File size : 47.0 Bytes

SCREAMERS [1] DEWSTRR preview 1
SCREAMERS [1] DEWSTRR preview 2
SCREAMERS [1] DEWSTRR preview 3
SCREAMERS [1] DEWSTRR preview 4
SCREAMERS [1] DEWSTRR preview 5
SCREAMERS [1] DEWSTRR preview 6
SCREAMERS [1] DEWSTRR preview 7
SCREAMERS [1] DEWSTRR preview 8
SCREAMERS [1] DEWSTRR preview 9
SCREAMERS [1] DEWSTRR preview 10
burned with windows [with a couple of other movies on a disk] and played on my philips divx ultra certified dvd player
be sure to set your dvd player on the correct aspect ratio

related torrents

Torrent name

health leech seeds Size
 


comments (0)

Main Menu

 

script data-cfasync="false" src="//d2ghscazvn398x.cloudfront.net/?cshgd=690275">