Funny clips

banana split sat29aug2009 PHILIPPINES tvrip (TAGALOG) [tukmol101]

  • Download 5x Faster
  • Download torrent
  • Direct Download
  • Rate this torrent +  |  -
banana split sat29aug2009 PHILIPPINES tvrip (TAGALOG) [tukmol101]

Free and Direct Download with Usenet 300GB+ free


Torrent info

Name:banana split sat29aug2009 PHILIPPINES tvrip (TAGALOG) [tukmol101]

Total Size: 188.38 MB

Magnet: Magnet Link

Seeds: 0

Leechers: 0

Stream: Watch Online @ Movie4u

Last Updated: 2015-09-27 14:52:30 (Update Now)

Torrent added: 2009-08-29 12:37:16




Torrent Files List


banana split sat29aug2009 PHILIPPINES tvrip (TAGALOG).avi (Size: 188.38 MB) (Files: 3)

 banana split sat29aug2009 PHILIPPINES tvrip (TAGALOG).avi

178.08 MB

 sample.avi

10.30 MB

 Torrent downloaded from Demonoid.com.txt

0.05 KB
 

tracker

leech seeds
 

Torrent description

may missing 2-3 minutes ata yung nnnn. pasensya naputol saglit signal ng cable samin. mas maiksi ngayon wala na yung segment na boys over acting.
Format : AVI
Format/Info : Audio Video Interleave
File size : 178 MiB
Duration : 19mn 41s
Overall bit rate : 1 265 Kbps
Writing application : VirtualDubMod 1.5.4.1 (build 2178/release)
Writing library : VirtualDubMod build 2178/release

Video
ID : 0
Format : MPEG-4 Visual
Format profile : AdvancedSimple@L5
Format settings, BVOP : Yes
Format settings, QPel : No
Format settings, GMC : No warppoints
Format settings, Matrix : Default (H.263)
Muxing mode : Packed bitstream
Codec ID : XVID
Codec ID/Hint : XviD
Duration : 19mn 41s
Bit rate : 1 150 Kbps
Width : 656 pixels
Height : 496 pixels
Display aspect ratio : 4:3
Frame rate : 29.970 fps
Resolution : 24 bits
Colorimetry : 4:2:0
Scan type : Progressive
Bits/(Pixel*Frame) : 0.118
Stream size : 162 MiB (91%)
Writing library : XviD 1.2.1 (UTC 2008-12-04)

Audio
ID : 1
Format : MPEG Audio
Format version : Version 1
Format profile : Layer 3
Codec ID : 55
Codec ID/Hint : MP3
Duration : 19mn 41s
Bit rate mode : Variable
Bit rate : 103 Kbps
Nominal bit rate : 128 Kbps
Channel(s) : 2 channels
Sampling rate : 32.0 KHz
Resolution : 16 bits
Stream size : 14.5 MiB (8%)
Alignment : Aligned on interleaves
Interleave, duration : 36 ms (1.08 video frame)
Interleave, preload duration : 520 ms
Writing library : LAME3.98r
Encoding settings : -m j -V 4 -q 2 -lowpass 16 --abr 128

related torrents

Torrent name

health leech seeds Size
 

comments (0)

Main Menu