Sci-Fi

Scanners III The Takeover (1992) dvdrip Xvid [

  • Download 5x Faster
  • Download torrent
  • Direct Download
  • Rate this torrent +  |  -
Scanners III The Takeover (1992) dvdrip Xvid [

Free and Direct Download with Usenet.nl 300GB+ free


Torrent info

Name:Scanners III The Takeover (1992) dvdrip Xvid [

Total Size: 699.24 MB

Magnet: Magnet Link

Seeds: 0

Leechers: 0

Stream: Watch Online @ Movie4u

Last Updated: 2010-09-30 00:39:41 (Update Now)

Torrent added: 2009-08-29 12:35:41





Torrent Files List


scanners 3.nfo (Size: 699.24 MB) (Files: 51)

 scanners 3.nfo

2.04 KB

 scanners 3.sfv

6.81 KB

 Scanners III - The Takeover (1992).part01.rar

14.31 MB

 Scanners III - The Takeover (1992).part02.rar

14.31 MB

 Scanners III - The Takeover (1992).part03.rar

14.31 MB

 Scanners III - The Takeover (1992).part04.rar

14.31 MB

 Scanners III - The Takeover (1992).part05.rar

14.31 MB

 Scanners III - The Takeover (1992).part06.rar

14.31 MB

 Scanners III - The Takeover (1992).part07.rar

14.31 MB

 Scanners III - The Takeover (1992).part08.rar

14.31 MB

 Scanners III - The Takeover (1992).part09.rar

14.31 MB

 Scanners III - The Takeover (1992).part10.rar

14.31 MB

 Scanners III - The Takeover (1992).part11.rar

14.31 MB

 Scanners III - The Takeover (1992).part12.rar

14.31 MB

 Scanners III - The Takeover (1992).part13.rar

14.31 MB

 Scanners III - The Takeover (1992).part14.rar

14.31 MB

 Scanners III - The Takeover (1992).part15.rar

14.31 MB

 Scanners III - The Takeover (1992).part16.rar

14.31 MB

 Scanners III - The Takeover (1992).part17.rar

14.31 MB

 Scanners III - The Takeover (1992).part18.rar

14.31 MB

 Scanners III - The Takeover (1992).part19.rar

14.31 MB

 Scanners III - The Takeover (1992).part20.rar

14.31 MB

 Scanners III - The Takeover (1992).part21.rar

14.31 MB

 Scanners III - The Takeover (1992).part22.rar

14.31 MB

 Scanners III - The Takeover (1992).part23.rar

14.31 MB

 Scanners III - The Takeover (1992).part24.rar

14.31 MB

 Scanners III - The Takeover (1992).part25.rar

14.31 MB

 Scanners III - The Takeover (1992).part26.rar

14.31 MB

 Scanners III - The Takeover (1992).part27.rar

14.31 MB

 Scanners III - The Takeover (1992).part28.rar

14.31 MB

 Scanners III - The Takeover (1992).part29.rar

14.31 MB

 Scanners III - The Takeover (1992).part30.rar

14.31 MB

 Scanners III - The Takeover (1992).part31.rar

14.31 MB

 Scanners III - The Takeover (1992).part32.rar

14.31 MB

 Scanners III - The Takeover (1992).part33.rar

14.31 MB

 Scanners III - The Takeover (1992).part34.rar

14.31 MB

 Scanners III - The Takeover (1992).part35.rar

14.31 MB

 Scanners III - The Takeover (1992).part36.rar

14.31 MB

 Scanners III - The Takeover (1992).part37.rar

14.31 MB

 Scanners III - The Takeover (1992).part38.rar

14.31 MB

 Scanners III - The Takeover (1992).part39.rar

14.31 MB

 Scanners III - The Takeover (1992).part40.rar

14.31 MB

 Scanners III - The Takeover (1992).part41.rar

14.31 MB

 Scanners III - The Takeover (1992).part42.rar

14.31 MB

 Scanners III - The Takeover (1992).part43.rar

14.31 MB

 Scanners III - The Takeover (1992).part44.rar

14.31 MB

 Scanners III - The Takeover (1992).part45.rar

14.31 MB

 Scanners III - The Takeover (1992).part46.rar

14.31 MB

 Scanners III - The Takeover (1992).part47.rar

14.31 MB

 Scanners III - The Takeover (1992).part48.rar

14.31 MB

 Scanners III - The Takeover (1992).part49.rar

12.59 MB
 

Announce URL: http://tracker.ilovetorrents.com/announce.php

Torrent description

General
Complete name : L:\Torrent Schijf\11 - Uploading\Scanners III - The Takeover (1992)\Scanners III - The Takeover (1992).avi
Format : AVI
Format/Info : Audio Video Interleave
File size : 699 MiB
Duration : 1h 35mn
Overal bit rate : 1024 Kbps
Writing application : VirtualDubMod 1.5.10.1 (build 2366/release)
Writing library : VirtualDubMod build 2366/release

Video
Format : MPEG-4 Visual
Format settings, BVOP : Yes
Format settings, QPel : No
Format settings, GMC : 2 warppoints
Format settings, Matrix : Default
Muxing mode : Packet Bitstream
Codec ID : DX50
Codec ID/Hint : DivX 5
Duration : 1h 35mn
Bit rate : 882 Kbps
Width : 608 pixels
Height : 336 pixels
Display aspect ratio : 16/9
Frame rate : 25.000 fps
Resolution : 8 bits
Colorimetry : 4:2:0
Scan type : Progressive
Bits/(Pixel*Frame) : 0.173
Stream size : 603 MiB
Writing library : DivX 5.1.1 (Maupiti) (UTC 2003-11-19)

Audio
Format : MPEG Audio
Format version : Version 1
Format profile : Layer 3
Codec ID : 55
Codec ID/Hint : MP3
Duration : 1h 35mn
Bit rate mode : Variable
Bit rate : 128 Kbps
Channel(s) : 2 channels
Sampling rate : 48.0 KHz
Resolution : 16 bits
Stream size : 87.7 MiB
Writing library : LAME3.90.
Encoding settings : ABR

Link: http://www.imdb.com/title/tt0105322/

related torrents

Torrent name

health leech seeds Size
 

comments (0)

Main Menu