Sci-Fi

Scanners II The New Order (1991) dvdrip Xvid [

  • Download 5x Faster
  • Download torrent
  • Direct Download
  • Rate this torrent +  |  -
Scanners II The New Order (1991) dvdrip Xvid [

Free and Direct Download with Usenet.nl 300GB+ free


Torrent info

Name:Scanners II The New Order (1991) dvdrip Xvid [

Total Size: 699.32 MB

Magnet: Magnet Link

Seeds: 0

Leechers: 0

Stream: Watch Online @ Movie4u

Last Updated: 2012-11-25 18:09:57 (Update Now)

Torrent added: 2009-08-29 12:35:40





Torrent Files List


Scanners 2.nfo (Size: 699.32 MB) (Files: 51)

 Scanners 2.nfo

2.09 KB

 Scanners 2.sfv

6.81 KB

 Scanners II - The New Order (1991).part01.rar

14.31 MB

 Scanners II - The New Order (1991).part02.rar

14.31 MB

 Scanners II - The New Order (1991).part03.rar

14.31 MB

 Scanners II - The New Order (1991).part04.rar

14.31 MB

 Scanners II - The New Order (1991).part05.rar

14.31 MB

 Scanners II - The New Order (1991).part06.rar

14.31 MB

 Scanners II - The New Order (1991).part07.rar

14.31 MB

 Scanners II - The New Order (1991).part08.rar

14.31 MB

 Scanners II - The New Order (1991).part09.rar

14.31 MB

 Scanners II - The New Order (1991).part10.rar

14.31 MB

 Scanners II - The New Order (1991).part11.rar

14.31 MB

 Scanners II - The New Order (1991).part12.rar

14.31 MB

 Scanners II - The New Order (1991).part13.rar

14.31 MB

 Scanners II - The New Order (1991).part14.rar

14.31 MB

 Scanners II - The New Order (1991).part15.rar

14.31 MB

 Scanners II - The New Order (1991).part16.rar

14.31 MB

 Scanners II - The New Order (1991).part17.rar

14.31 MB

 Scanners II - The New Order (1991).part18.rar

14.31 MB

 Scanners II - The New Order (1991).part19.rar

14.31 MB

 Scanners II - The New Order (1991).part20.rar

14.31 MB

 Scanners II - The New Order (1991).part21.rar

14.31 MB

 Scanners II - The New Order (1991).part22.rar

14.31 MB

 Scanners II - The New Order (1991).part23.rar

14.31 MB

 Scanners II - The New Order (1991).part24.rar

14.31 MB

 Scanners II - The New Order (1991).part25.rar

14.31 MB

 Scanners II - The New Order (1991).part26.rar

14.31 MB

 Scanners II - The New Order (1991).part27.rar

14.31 MB

 Scanners II - The New Order (1991).part28.rar

14.31 MB

 Scanners II - The New Order (1991).part29.rar

14.31 MB

 Scanners II - The New Order (1991).part30.rar

14.31 MB

 Scanners II - The New Order (1991).part31.rar

14.31 MB

 Scanners II - The New Order (1991).part32.rar

14.31 MB

 Scanners II - The New Order (1991).part33.rar

14.31 MB

 Scanners II - The New Order (1991).part34.rar

14.31 MB

 Scanners II - The New Order (1991).part35.rar

14.31 MB

 Scanners II - The New Order (1991).part36.rar

14.31 MB

 Scanners II - The New Order (1991).part37.rar

14.31 MB

 Scanners II - The New Order (1991).part38.rar

14.31 MB

 Scanners II - The New Order (1991).part39.rar

14.31 MB

 Scanners II - The New Order (1991).part40.rar

14.31 MB

 Scanners II - The New Order (1991).part41.rar

14.31 MB

 Scanners II - The New Order (1991).part42.rar

14.31 MB

 Scanners II - The New Order (1991).part43.rar

14.31 MB

 Scanners II - The New Order (1991).part44.rar

14.31 MB

 Scanners II - The New Order (1991).part45.rar

14.31 MB

 Scanners II - The New Order (1991).part46.rar

14.31 MB

 Scanners II - The New Order (1991).part47.rar

14.31 MB

 Scanners II - The New Order (1991).part48.rar

14.31 MB

 Scanners II - The New Order (1991).part49.rar

12.67 MB
 

Announce URL: http://tracker.ilovetorrents.com/announce.php

Torrent description

General
Complete name : L:\Torrent Schijf\11 - Uploading\Scanners II - The New Order (1991)\Scanners II - The New Order (1991).avi
Format : AVI
Format/Info : Audio Video Interleave
File size : 699 MiB
Duration : 1h 39mn
Overal bit rate : 979 Kbps
Writing application : VirtualDubMod 1.5.10.1 (build 2366/release)
Writing library : VirtualDubMod build 2366/release

Video
Format : MPEG-4 Visual
Format settings, BVOP : Yes
Format settings, QPel : No
Format settings, GMC : 2 warppoints
Format settings, Matrix : Default
Muxing mode : Packet Bitstream
Codec ID : DX50
Codec ID/Hint : DivX 5
Duration : 1h 39mn
Bit rate : 836 Kbps
Width : 608 pixels
Height : 336 pixels
Display aspect ratio : 16/9
Frame rate : 25.000 fps
Resolution : 8 bits
Colorimetry : 4:2:0
Scan type : Progressive
Bits/(Pixel*Frame) : 0.164
Stream size : 597 MiB
Writing library : DivX 5.1.1 (Maupiti) (UTC 2003-11-19)

Audio
Format : MPEG Audio
Format version : Version 1
Format profile : Layer 3
Codec ID : 55
Codec ID/Hint : MP3
Duration : 1h 39mn
Bit rate mode : Variable
Bit rate : 130 Kbps
Nominal bit rate : 128 Kbps
Channel(s) : 2 channels
Sampling rate : 48.0 KHz
Resolution : 16 bits
Stream size : 92.8 MiB
Writing library : LAME3.90.
Encoding settings : ABR

Link: http://www.imdb.com/title/tt0102848/

related torrents

Torrent name

health leech seeds Size
 

comments (0)

Main Menu