Sci-Fi

Scanners I David Cronenberg (1981) dvdrip Xvid [

  • Download 5x Faster
  • Download torrent
  • Direct Download
  • Rate this torrent +  |  -
Scanners I David Cronenberg (1981) dvdrip Xvid [

Free and Direct Download with Usenet.nl 300GB+ free


Torrent info

Name:Scanners I David Cronenberg (1981) dvdrip Xvid [

Total Size: 699.02 MB

Magnet: Magnet Link

Seeds: 0

Leechers: 0

Stream: Watch Online @ Movie4u

Last Updated: 2016-01-31 23:31:13 (Update Now)

Torrent added: 2009-08-29 12:35:34





Torrent Files List


Scanners 1.nfo (Size: 699.02 MB) (Files: 51)

 Scanners 1.nfo

1.93 KB

 Scanners 1.sfv

7.00 KB

 Scanners I - David Cronenberg (1981).part01.rar

14.31 MB

 Scanners I - David Cronenberg (1981).part02.rar

14.31 MB

 Scanners I - David Cronenberg (1981).part03.rar

14.31 MB

 Scanners I - David Cronenberg (1981).part04.rar

14.31 MB

 Scanners I - David Cronenberg (1981).part05.rar

14.31 MB

 Scanners I - David Cronenberg (1981).part06.rar

14.31 MB

 Scanners I - David Cronenberg (1981).part07.rar

14.31 MB

 Scanners I - David Cronenberg (1981).part08.rar

14.31 MB

 Scanners I - David Cronenberg (1981).part09.rar

14.31 MB

 Scanners I - David Cronenberg (1981).part10.rar

14.31 MB

 Scanners I - David Cronenberg (1981).part11.rar

14.31 MB

 Scanners I - David Cronenberg (1981).part12.rar

14.31 MB

 Scanners I - David Cronenberg (1981).part13.rar

14.31 MB

 Scanners I - David Cronenberg (1981).part14.rar

14.31 MB

 Scanners I - David Cronenberg (1981).part15.rar

14.31 MB

 Scanners I - David Cronenberg (1981).part16.rar

14.31 MB

 Scanners I - David Cronenberg (1981).part17.rar

14.31 MB

 Scanners I - David Cronenberg (1981).part18.rar

14.31 MB

 Scanners I - David Cronenberg (1981).part19.rar

14.31 MB

 Scanners I - David Cronenberg (1981).part20.rar

14.31 MB

 Scanners I - David Cronenberg (1981).part21.rar

14.31 MB

 Scanners I - David Cronenberg (1981).part22.rar

14.31 MB

 Scanners I - David Cronenberg (1981).part23.rar

14.31 MB

 Scanners I - David Cronenberg (1981).part24.rar

14.31 MB

 Scanners I - David Cronenberg (1981).part25.rar

14.31 MB

 Scanners I - David Cronenberg (1981).part26.rar

14.31 MB

 Scanners I - David Cronenberg (1981).part27.rar

14.31 MB

 Scanners I - David Cronenberg (1981).part28.rar

14.31 MB

 Scanners I - David Cronenberg (1981).part29.rar

14.31 MB

 Scanners I - David Cronenberg (1981).part30.rar

14.31 MB

 Scanners I - David Cronenberg (1981).part31.rar

14.31 MB

 Scanners I - David Cronenberg (1981).part32.rar

14.31 MB

 Scanners I - David Cronenberg (1981).part33.rar

14.31 MB

 Scanners I - David Cronenberg (1981).part34.rar

14.31 MB

 Scanners I - David Cronenberg (1981).part35.rar

14.31 MB

 Scanners I - David Cronenberg (1981).part36.rar

14.31 MB

 Scanners I - David Cronenberg (1981).part37.rar

14.31 MB

 Scanners I - David Cronenberg (1981).part38.rar

14.31 MB

 Scanners I - David Cronenberg (1981).part39.rar

14.31 MB

 Scanners I - David Cronenberg (1981).part40.rar

14.31 MB

 Scanners I - David Cronenberg (1981).part41.rar

14.31 MB

 Scanners I - David Cronenberg (1981).part42.rar

14.31 MB

 Scanners I - David Cronenberg (1981).part43.rar

14.31 MB

 Scanners I - David Cronenberg (1981).part44.rar

14.31 MB

 Scanners I - David Cronenberg (1981).part45.rar

14.31 MB

 Scanners I - David Cronenberg (1981).part46.rar

14.31 MB

 Scanners I - David Cronenberg (1981).part47.rar

14.31 MB

 Scanners I - David Cronenberg (1981).part48.rar

14.31 MB

 Scanners I - David Cronenberg (1981).part49.rar

12.37 MB
 

tracker

leech seeds
 

Torrent description

General
Complete name : L:\Torrent Schijf\11 - Uploading\Scanners I - David Cronenberg (1981)\Scanners I - David Cronenberg (1981).avi
Format : AVI
Format/Info : Audio Video Interleave
File size : 699 MiB
Duration : 1h 43mn
Overal bit rate : 948 Kbps
Writing application : VirtualDubMod 1.4.13
Writing library : VirtualDub build 14328/release

Video
Format : MPEG-4 Visual
Format settings, BVOP : Yes
Format settings, QPel : No
Format settings, GMC : 2 warppoints
Format settings, Matrix : Default
Muxing mode : Packet Bitstream
Codec ID : DX50
Codec ID/Hint : DivX 5
Duration : 1h 43mn
Bit rate : 835 Kbps
Width : 608 pixels
Height : 320 pixels
Display aspect ratio : 1.900
Frame rate : 23.976 fps
Resolution : 8 bits
Colorimetry : 4:2:0
Scan type : Progressive
Bits/(Pixel*Frame) : 0.179
Stream size : 616 MiB
Writing library : DivX 5.0.5 (UTC 2003-04-24)

Audio
Format : MPEG Audio
Format version : Version 1
Format profile : Layer 3
Codec ID : 55
Codec ID/Hint : MP3
Duration : 1h 43mn
Bit rate mode : Constant
Bit rate : 32.0 Kbps
Channel(s) : 2 channels
Sampling rate : 48.0 KHz
Resolution : 16 bits
Stream size : 73.9 MiB

Link: http://www.imdb.com/title/tt0081455/

related torrents

Torrent name

health leech seeds Size
 

comments (0)

Main Menu