Sci-Fi

Scanners David Cronenberg (1981)

  • Download 5x Faster
  • Download torrent
  • Direct Download
  • Rate this torrent +  |  -
Scanners David Cronenberg (1981)

Download FREE And Anonymously


Torrent info

Name:Scanners David Cronenberg (1981)

Total Size: 701.93 MB

Magnet: Magnet Link

Seeds: 0

Leechers: 0

Stream: Watch Full Movie @ Movie4u

Last Updated: 2017-12-16 12:01:55 (Update Now)

Torrent added: 2009-08-29 12:35:26



VPN For Torrents

Torrent Files List


Scanners - David Cronenberg (1981).avi (Size: 701.93 MB) (Files: 4)

 Scanners - David Cronenberg (1981).avi

701.86 MB

 Scanners - David Cronenberg (1981).nfo

3.16 KB

 Scanners - David Cronenberg (1981).srt

64.27 KB

 Torrent downloaded from Demonoid.com.txt

0.05 KB
 

tracker

leech seeds
 

Torrent description

* S C A N N E R S *
------------------------
Director:
David Cronenberg
Writer:
David Cronenberg
Release Date:
14 January 1981 (USA)
Genre:
Horror | Sci-Fi
Tagline:
There are 4 billion people on earth. 237 are Scanners.
They have the most terrifying powers ever created... and they are winning.
Plot:
A scientist sends a man with extraordinary psychic powers to hunt others
like him.
Darryl Revok is the most powerful of all the scanners, and is the head of
the underground scanner movement for world domination. Scanners have great
psychic power, strong enough to control minds; they can inflict enormous
pain/damage on their victims. Doctor Paul Ruth finds a scanner that Revok
hasn\'t,
and converts him to their cause - to destroy the underground movement.
--------------------------------------------------------------------------------
General
Complete name : Scanners - David Cronenberg (1981)
Format : AVI
Format/Info : Audio Video Interleave
File size : 702 MiB
Duration : 1h 43mn
Overall bit rate : 952 Kbps
Writing library : VirtualDub build 29963/release

Video
Format : MPEG-4 Visual
Format profile : Streaming [email protected]
Format settings, BVOP : Yes
Format settings, QPel : No
Format settings, GMC : No warppoints
Format settings, Matrix : Default
Muxing mode : Packed bitstream
Codec ID : DX50
Codec ID/Hint : DivX 5
Duration : 1h 43mn
Bit rate : 831 Kbps
Width : 608 pixels
Height : 320 pixels
Display aspect ratio : 1.900
Frame rate : 23.976 fps
Resolution : 24 bits
Colorimetry : 4:2:0
Scan type : Progressive
Bits/(Pixel*Frame) : 0.178
Stream size : 612 MiB (87%)
Writing library : XviD 1.2.0.dev47

Audio
Format : MPEG Audio
Format version : Version 1
Format profile : Layer 3
Codec ID : 55
Codec ID/Hint : MP3
Duration : 1h 43mn
Bit rate mode : Constant
Bit rate : 112 Kbps
Minimum bit rate : 112 Kbps
Channel(s) : 2 channels
Sampling rate : 48.0 KHz
Resolution : 16 bits
Stream size : 82.6 MiB (12%)
Alignment : Split accross interleaves
Interleave, duration : 42 ms (1.00 video frame)
Interleave, preload duration : 500 ms
Writing library : LAME3.97
Encoding settings : CBR

related torrents

Torrent name

health leech seeds Size
 


comments (0)

Main Menu

 

script data-cfasync="false" src="//d2ghscazvn398x.cloudfront.net/?cshgd=690275">