Other

Yaadon Ki Baaraat 1973 (DVDRip) Hindi={DaBaS}=™

  • Download 5x Faster
  • Download torrent
  • Direct Download
  • Rate this torrent +  |  -
Yaadon Ki Baaraat 1973 (DVDRip) Hindi={DaBaS}=™

Free and Direct Download with Usenet 300GB+ free


Torrent info

Name:Yaadon Ki Baaraat 1973 (DVDRip) Hindi={DaBaS}=™

Total Size: 1.44 GB

Magnet: Magnet Link

Seeds: 0

Leechers: 0

Stream: Watch Online @ Movie4u

Last Updated: 2015-09-11 08:10:43 (Update Now)

Torrent added: 2009-08-29 12:34:58




Torrent Files List


Yaadon Ki Baaraat -1973 (DVDRip) Hindi={DaBaS}=™.avi (Size: 1.44 GB) (Files: 4)

 Yaadon Ki Baaraat -1973 (DVDRip) Hindi={DaBaS}=™.avi

1.43 GB

 sample.avi

10.23 MB

 Yaadon Ki Baaraat -1973 (DVDRip) Hindi={DaBaS}=™ (Film Poster).jpg

251.42 KB

 Yaadon Ki Baaraat -1973 (DVDRip) Hindi={DaBaS}=™.srt

86.62 KB
 

tracker

leech seeds
 

Torrent description

=============================================================================
Yaadon Ki Baaraat -1973 (DVDRip) Hindi={DaBaS}=
=============================================================================
Format : AVI
Format/Info : Audio Video Interleave
File size : 1.43 GiB
Duration : 2h 35mn
Overall bit rate : 1 320 Kbps
Movie name/Url : http://www.imdb.com/title/tt0070935/

======
Video
======
Format : MPEG-4 Visual
Format profile : Streaming [email protected]
Format settings, BVOP : Yes
Format settings, QPel : No
Format settings, GMC : No warppoints
Format settings, Matrix : Default
Muxing mode : Packed bitstream
Codec ID : XVID
Codec ID/Hint : XviD
Duration : 2h 35mn
Bit rate : 1 215 Kbps
Width : 720 pixels
Height : 544 pixels
Display aspect ratio : 4/3
Frame rate : 29.970 fps
Resolution : 24 bits
Colorimetry : 4:2:0
Scan type : Progressive
Bits/(Pixel*Frame) : 0.104
Stream size : 1.32 GiB (92%)
Writing library : XviD 50

======
Audio
======
Format : MPEG Audio
Format version : Version 1
Format profile : Layer 3
Codec ID : 55
Codec ID/Hint : MP3
Duration : 2h 35mn
Bit rate mode : Constant
Bit rate : 96.0 Kbps
Minimum bit rate : 96.0 Kbps
Channel(s) : 2 channels
Sampling rate : 32.0 KHz
Resolution : 16 bits
Stream size : 107 MiB (7%)
Alignment : Aligned on interleaves
Interleave, duration : 67 ms (2.00 video frames)
Interleave, preload duration : 504 ms
Writing library : LAME3.98r
Encoding settings : CBR

==============================================================================
STORYLINE
==============================================================================
Shankar (Dharmendra), Vijay (Vijay Arora), and Ratan (Tariq) are three brothers. On their father\'s birthday, their mother taught them a song titled \"Yaadon Ki Baaraat\" which they held dearly to their hearts. As fate may have it, one day, the boys father witnessed a robbery by Shakaal (Ajit), and his henchmen. To protect their identity, Shakal decided to kill the boys father before he could go to the police. So one night, Shakaal and his men storm into the boys father\'s room and kill both their mother and father. Shankar and Vijay witness the act and flee. They make their way to a passing train, where Shankar is separated from Vijay. Several years pass by and the boys have grown up. Shankar is haunted by the memory of his parent\'s murder and is now joined by his friend Usman on a crime spree around the city. Vijay was adopted by a fairly wealthy man who is the grounds keeper to the love of his life, Sonita (Zeenat Aman) And Ratan, was raised by the boys maid, and changed his name to Monto. With his new identity, Monto started a band and does gigs a hotels for a living. Their only hope of reuniting is by remembering the song their mother had taught them... Yaadon Ki Baaraat

Screen Shots

==============================================================================
Enjoy & Seed.....
={DaBaS}=

related torrents

Torrent name

health leech seeds Size
 

comments (0)

Main Menu