Sci-Fi

Roswell (1994) aka Roswell: The UFO cover up (New QualityDVDrip)

  • Download 5x Faster
  • Download torrent
  • Direct Download
  • Rate this torrent +  |  -
Roswell (1994) aka Roswell: The UFO cover up (New QualityDVDrip)

Anonymous and Direct Download 300GB+ free


Torrent info

Name:Roswell (1994) aka Roswell: The UFO cover up (New QualityDVDrip)

Total Size: 698.50 MB

Magnet: Magnet Link

Seeds: 0

Leechers: 0

Stream: Watch Online @ Movie4u

Last Updated: 2014-11-20 13:30:54 (Update Now)

Torrent added: 2009-08-29 12:32:59




Torrent Files List


Info about this release.txt (Size: 698.50 MB) (Files: 2)

 Info about this release.txt

5.16 KB

 Roswell (1994) movie The UFO cover-up[Quality DVDrip]_Kuth.avi

698.49 MB
 

Announce URL:

Torrent description

Roswell (1994) aka Incident at Roswell - Roswell: The U.F.O. Cover-Up

With Kyle MacLachlan (Twin Peaks)
Martin Sheen (West Wing)
John M. Jackson (Commander from JAG)
Peter MacNicol (Dr. Fleinhardt from Numb3rs)

This is a new quality rip from a brand-new DVD. I bought it because I thought the quality was too bad for the rip I found on the net and uploaded earlier. I was surprised to see the interest in this film, which I thought everyone knew. I saw it the first time from a satellite film channel in 1996, and it has been one of my favourites ever since.

Plot: A major who actually witnessed the (in)famous UFO landing in Roswell in 1947, looks back on what really happened. He had a hard time trying to convince his superiors that he did not find just a weather balloon. Adapted from real-life events portrayed in the book 'UFO Crash at Roswell' by Kevin Randle and Donald Schmitt. With scenes from the original crash site and the well-known autopsy of the aliens.

Please note: This was originally a made-for-TV movie, and the brand-new DVD is not perfect. It sometimes has a few thin horizontal black lines that could not be removed in the ripping process.

Original letterbox format.
XviD 2-pass 624x464, good stereo sound AC3.

Burn tested, runs well in both my standalone DivX players.


Format/Info : Audio Video Interleave
File size : 698 MiB
Duration : 1h 31mn
Overal bit rate : 1071 Kbps

Video
Format : MPEG-4 Visual
Format profile : Streaming [email protected]
Format settings, BVOP : Yes
Format settings, QPel : No
Format settings, GMC : No warppoints
Format settings, Matrix : Default
Muxing mode : Packet Bitstream
Codec ID : XVID
Codec ID/Hint : XviD
Duration : 1h 31mn
Bit rate : 933 Kbps
Width : 624 pixels
Height : 464 pixels
Display aspect ratio : 4/3
Frame rate : 23.976 fps
Resolution : 8 bits
Colorimetry : 4:2:0
Scan type : Progressive
Bits/(Pixel*Frame) : 0.134
Stream size : 609 MiB
Writing library : XviD 1.2.0.dev47 (UTC 2006-11-01)

Audio
Format : MPEG Audio
Format version : Version 1
Format profile : Layer 3
Codec ID : 55
Codec ID/Hint : MP3
Duration : 1h 31mn
Bit rate mode : Constant
Bit rate : 128 Kbps
Minimum bit rate : 128 Kbps
Channel(s) : 2 channels
Sampling rate : 48.0 KHz
Resolution : 16 bits
Stream size : 83.5 MiB
Writing library : LAME3.97
Encoding settings : CBR

Source: NTSC IVTC 4.11 GiB

related torrents

Torrent name

health leech seeds Size
 


comments (0)

Main Menu