Sci-Fi

Returner[2002]DVDrip[Eng]AC3[5 1] Atlas47

  • Download 5x Faster
  • Download torrent
  • Direct Download
  • Rate this torrent +  |  -
Returner[2002]DVDrip[Eng]AC3[5 1] Atlas47

Anonymous and Free Direct Download


Torrent info

Name:Returner[2002]DVDrip[Eng]AC3[5 1] Atlas47

Total Size: 1.37 GB

Magnet: Magnet Link

Seeds: 1

Leechers: 1

Stream: Watch Online @ Movie4u

Last Updated: 2010-12-20 16:25:10 (Update Now)

Torrent added: 2009-08-29 12:29:28



VPN For Torrents

Torrent Files List


Returner.avi (Size: 1.37 GB) (Files: 4)

 Returner.avi

1.37 GB

 Returner.idx

34.93 KB

 Returner.nfo

10.14 KB

 Returner.sub

2.03 MB
 

Announce URL: http://tracker.publicbt.com:80/announce

Torrent description


±±±±±±±±±±±±±±±±±±±±±±±±±±±±±±>>www.tornster.com<<±±±±±±±±±±±±±±±±±±±±±±±±±±±±±±
± ±
± INFO: ±
± ±
± General ±
± Complete name : Returner ±
± Genre : Action / Adventure / Sci-Fi ±
± Format : AVI ±
± Format/Info : Audio Video Interleave ±
± File size : 1.37 GiB ±
± Duration : 1h 52mn ±
± Overall bit rate : 1 748 Kbps ±
± Writing application : VirtualDubMod 1.5.4.1 (build 2178/release)±
± Writing library : VirtualDubMod build 2178/release ±
± ±
± Video ±
± Format : MPEG-4 Visual ±
± Format settings, BVOP : Yes ±
± Format settings, QPel : No ±
± Format settings, GMC : No warppoints ±
± Format settings, Matrix : Default ±
± Codec ID : DX50 ±
± Codec ID/Hint : DivX 5 ±
± Duration : 1h 52mn ±
± Bit rate : 1 293 Kbps ±
± Width : 704 pixels ±
± Height : 384 pixels ±
± Display aspect ratio : 16/9 ±
± Frame rate : 25.000 fps ±
± Resolution : 24 bits ±
± Colorimetry : 4:2:0 ±
± Scan type : Progressive ±
± Bits/(Pixel*Frame) : 0.191 ±
± Stream size : 1.01 GiB (74%) ±
± Writing library : DivX 2816 ±
± ±
± Audio ±
± Format : AC-3 ±
± Format/Info : Audio Coding 3 ±
± Codec ID : 2000 ±
± Duration : 1h 52mn ±
± Bit rate mode : Constant ±
± Bit rate : 448 Kbps ±
± Channel(s) : 6 channels ±
± Channel positions : Front: L C R, Surround: L R, LFE ±
± Sampling rate : 48.0 KHz ±
± Stream size : 359 MiB (26%) ±
± Alignment : Split accross interleaves ±
± Interleave, duration : 80 ms (2.00 video frames) ±
± Interleave, preload duration : 500 ms ±
± Language : English ±
± Subtitles : English ±
± ±
± IMDb Rating : 6.7/10 ±
± IMDb URL : http://www.imdb.com/title/tt0339579/ ±
± ±
±°°°°°°°°°°°°°°°°°°°°°°°°°°°°°°°°°°°°°°°°°°°°°°°°°°°°°°°°°°°°°°°°°°°°°°°°°°°°°°±
± ±
± After an alien invasion threatens to annihilate the human race, a young ±
± Japanese girl, named Milly, travels back in time from 2084 to October 2002, ±
± and enlists the reluctant aid of skilled Tokyo gunman, named Miyamoto, to ±
± discover and prevent the start of the war. ±
± ±
± ±
± ±
± ±
± ±
± ±
± ±
±°°°°°°°°°°°°°°°°°°°°°°°°°°°°°°°°°°°°°°°°°°°°°°°°°°°°°°°°°°°°°°°°°°°°°°°°°°°°°°±
± ±
± CAST: ±
± ±
± Tekeshi Kaneshiro..........Miyamoto ±
± Anne Suzuki................Milly ±
± Kirin Kiki.................Xie ±
± Goro Kishitani.............Mizoguchi ±
± Yukiko Okamoto.............Dr. Yagi ±
± Mitsuru Murata.............Mizoguchi's Henchman ±
± Kisuke Lida................Mizoguchi's Henchman ±
± ±
±°°°°°°°°°°°°°°°°°°°°°°°°°°°°°°°°°°°°°°°°°°°°°°°°°°°°°°°°°°°°°°°°°°°°°°°°°°°°°°±
± ±
± Please remember to seed ±
± ±
± Standalone Enabled ±
± ±
± www.tornster.com ±
± ±
±±±±±±±±±±±±±±±±±±±±±±±±±±±±±±±±±±±±±±±±±±±±±±±±±±±±±±±±±±±±±±±±±±±±±±±±±±±±±±±±

related torrents

Torrent name

health leech seeds Size
 


comments (0)

Main Menu