Comedy

What Happens in Vegas (2008) 1337x DvdRip By {Noir}

  • Download 5x Faster
  • Download torrent
  • Direct Download
  • Rate this torrent +  |  -
What Happens in Vegas (2008) 1337x DvdRip By {Noir}

Anonymous and Direct Download 300GB+ free


Torrent info

Name:What Happens in Vegas (2008) 1337x DvdRip By {Noir}

Total Size: 726.86 MB

Magnet: Magnet Link

Seeds: 1

Leechers: 1

Stream: Watch Online @ Movie4u

Last Updated: 2010-09-22 11:14:52 (Update Now)

Torrent added: 2008-08-13 04:50:04




Torrent Files List


1337x.Org.txt (Size: 726.86 MB) (Files: 5)

 1337x.Org.txt

0.03 KB

 Noir.nfo

5.52 KB

 Subs

  What Happens in Vegas (2008) [1337x] [DvdRip] By {Noir}.idx

290.82 KB

  What Happens in Vegas (2008) [1337x] [DvdRip] By {Noir}.sub

16.64 MB

 What Happens in Vegas (2008) [1337x] [DvdRip] By {Noir}.avi

709.92 MB
 

Announce URL: http://genesis.1337x.org:1337/announce

Torrent description

What Happens in Vegas (2008) 1337x DvdRip By {Noir} preview 0

Screenshots

What Happens in Vegas (2008) 1337x DvdRip By {Noir} preview 1

What Happens in Vegas (2008) 1337x DvdRip By {Noir} preview 2

What Happens in Vegas (2008) 1337x DvdRip By {Noir} preview 3

What Happens in Vegas (2008) 1337x DvdRip By {Noir} preview 4

[code]______________________________________________________________
▓▓▓▓▓▓ |
▓█████▓ ▓▓▓▓ |
▓██████▓ ▓▓███▓ |
▓▓██████▓ ▓████▓▓▓▓▓▓ |
██████▓ ▓██▒█▓▓███▓▓ ▓▓▓▓▓▓▓▓▓▓▓▓▓ |
▓██▒████▓ ▓██▒█▓██████▓▓███▓███▓███▓▓ |
▓██▒▒████▓ ▓██▒███▒▒▒▒██▓████████████▓ |
▓██▒▒▒▒███▓ ▓██▒██▒▒▒▒▒▒███▒▒▒██▒█▒▒▒██▓▓ |
▓██▒▒██▒▒██▓▓██▒██▒▒█▒▒▒▒███████▒▒▒▒▒▒██▓ |
▓██▒▒███▒▒██▓██▒██▒█▓█▒▒▒██▒▒▒██▒▒██▒▒▒█▓ |
▓██▒▒████▒▒████▒██▒█▓█▒▒▒██▒▒▒██▒▒███▒██▓ |
▓██▒▒█▓███▒▒███▒██▒▒█▒▒▒▒██▒▒▒██▒▒██████▓ |
▓██▒▒█▓▓███▒▒██▒██▒▒▒▒▒▒▒██▒▒▒██▒▒██▓███▓ |
▓▓██▒▒█▓ ▓███▒▒█▒██▒▒▒▒▒▒▒███████▒▒██▓▓▓▓▓ |
▓▓███▒▒█▓ ▓███▒▒▒███▒▒▒▒▒██▓▓▓▓██▒▒██▓ |
▓████▒▒█▓ ▓███▒▒█████████▓▓ ▓██▒▒██▓ |
▓████▒▒█▓ ▓███▒█▓██████▓▓▓ ▓██████▓ |
▓███████▓ ▓▓████▓▓▓▓▓▓▓▓ ▓▓▓▓▓▓▓▓ |
▓▓▓▓▓▓▓▓▓ ▓▓▓▓▓ |
______________________________________________________________|



********************************
* What Happens in Vegas (2008) *
********************************

________________________
General Information |
________________________|
_______________________________________________________________
Type : Movie |
Format : AVI |
Format/Info : Audio Video Interleave |
File size : 710 MiB |
Duration : 1h 38mn |
Subtitles : English,Spanish,French |
Source : Dvd NTSC |
Genre : Comedy | Romance |
IMDB Link : http://www.imdb.com/title/tt1033643/ |
Rating : 5.6/10 |
_______________________________________________________________|
Video
Format : AVC
Format/Info : Advanced Video Codec
Format profile : [email protected]
Format settings, CABAC : Yes
Format settings, ReFrames : 2 frames
Codec ID : H264
Duration : 1h 38mn
Bit rate : 868 Kbps
Width : 672 pixels
Height : 288 pixels
Display aspect ratio : 2.35
Frame rate : 23.976 fps
Resolution : 24 bits
Colorimetry : 4:2:0
Scan type : Progressive
Bits/(Pixel*Frame) : 0.187
Stream size : 613 MiB (86%)
_______________________________________________________________
Audio
Format : MPEG Audio
Format version : Version 1
Format profile : Layer 3
Codec ID : 55
Codec ID/Hint : MP3
Duration : 1h 38mn
Bit rate mode : Constant
Bit rate : 128 Kbps
Minimum bit rate : 128 Kbps
Channel(s) : 2 channels
Sampling rate : 48.0 KHz
Resolution : 16 bits
Stream size : 90.4 MiB (13%)
Alignment : Aligned on interleaves
Interleave, duration : 42 ms (1.00 video frame)
Interleave, preload duration : 504 ms
Writing library : LAME3.97
Encoding settings : CBR
_______________________________________________________________
________________
Description |
________________|
_______________________________________________________________
Set in Sin City, story revolves around two people who discover |
they\'ve gotten married following a night of debauchery, with |
one of them winning a huge jackpot after playing the other\'s |
quarter. Unhappy pair try to undermine each other and get their|
hands on the money -- falling in love along the way | |
_______________________________________________________________|
____________________
Playback Information|
____________________|
_______________________________________________________________
For best playback with my movie you will need an h.264/x264 |
Decoder.My personal favorite is CoreAvc Professional. |
http://www.coreavc.com/ . You can download it with serial |
and application from My site here. |
http://noirsstuff.googlepages.com/home |
You can also use ffdshow for playback as well,VLC media Player,|
And media player classic. |
_______________________________________________________________|
___________________
Post Information |
___________________|
________________________________
Posted by............: Noir |
Posted on............: 8/13/2008|
________________________________|
[/code]

What Happens in Vegas (2008) 1337x DvdRip By {Noir} preview 5

What Happens in Vegas (2008) 1337x DvdRip By {Noir} preview 6

related torrents

Torrent name

health leech seeds Size
 


comments (0)

Main Menu