Sci-Fi

RED PLANET DEWSTRR

  • Download 5x Faster
  • Download torrent
  • Direct Download
  • Rate this torrent +  |  -
RED PLANET DEWSTRR

Anonymous and Direct Download 300GB+ free


Torrent info

Name:RED PLANET DEWSTRR

Total Size: 1.09 GB

Magnet: Magnet Link

Seeds: 11

Leechers: 7

Stream: Watch Online @ Movie4u

Last Updated: 2010-12-27 01:05:41 (Update Now)

Torrent added: 2009-08-29 12:25:48




Torrent Files List


RED PLANET.avi (Size: 1.09 GB) (Files: 15)

 RED PLANET.avi

1.09 GB

 RED PLANET.sfv

1.52 KB

 REP PLANET.NFO

3.16 KB

 RP 1.jpg

12.41 KB

 RP 10.jpg

14.99 KB

 RP 2.jpg

12.97 KB

 RP 3.jpg

12.75 KB

 RP 4.jpg

14.60 KB

 RP 5.jpg

18.60 KB

 RP 6.jpg

22.70 KB

 RP 7.jpg

16.03 KB

 RP 8.jpg

15.10 KB

 RP 9.jpg

11.97 KB

 RP CP.jpg

31.28 KB

 Torrent_downloaded_from_Demonoid.com.txt

0.05 KB
 

Announce URL: http://inferno.demonoid.com:3412/announce

Torrent description

RED PLANET

Sci-Fi | Action | Thriller

Mission Commander Kate Bowman (Carrie-Anne Moss - The Matrix) is the pilot and commander of the most important mission of the 21st century - saving the human race.

It's 2050, Earth is dying, and colonizing Mars is the only alternative to obliteration. But what happens when Bowman and her crew get there is far more terrifying than anyone could have guessed: a crash-landing leaves them without scientific, communication or escape equipment: and causes their military mapping and exploration robot to malfunction into an enemy.

But as the landing team explores the harsh new planet they make the most baffling discovery of them all: Mars is not barren and its not uninhabited.

And Val Kilmer's robot has balls.

RED PLANET DEWSTRR preview 0

http://www.imdb.com/title/tt0199753/

Format : AVI
Format/Info : Audio Video Interleave
File size : 1.09 GiB
Duration : 1h 46mn
Overall bit rate : 1 471 Kbps
Writing application : VirtualDubMod 1.5.4.1 (build 2178/release)
Writing library : VirtualDubMod build 2178/release

Video
Format : MPEG-4 Visual
Format settings, BVOP : Yes
Format settings, QPel : No
Format settings, GMC : No warppoints
Format settings, Matrix : Default
Codec ID : DX50
Codec ID/Hint : DivX 5
Duration : 1h 46mn
Bit rate : 1 081 Kbps
Width : 672 pixels
Height : 288 pixels
Display aspect ratio : 2.35
Frame rate : 23.976 fps
Resolution : 24 bits
Colorimetry : 4:2:0
Scan type : Progressive
Bits/(Pixel*Frame) : 0.233
Stream size : 823 MiB (73%)
Writing library : DivX 2816

Audio
Format : AC-3
Format/Info : Audio Coding 3
Codec ID : 2000
Duration : 1h 46mn
Bit rate mode : Constant
Bit rate : 384 Kbps
Channel(s) : 6 channels
Channel positions : Front: L C R, Surround: L R, LFE
Sampling rate : 48.0 KHz
Video delay : 17ms
Stream size : 293 MiB (26%)
Alignment : Split accross interleaves
Interleave, duration : 96 ms (2.30 video frames)
Interleave, preload duration : 96 ms

General
Complete name : RED PLANET.DEWSTRR\RED PLANET.sfv
File size : 1.52 KiB

General
Complete name : RED PLANET.DEWSTRR\Torrent_downloaded_from_Demonoid.com.txt
File size : 47.0 Bytes
RED PLANET DEWSTRR preview 1
RED PLANET DEWSTRR preview 2
RED PLANET DEWSTRR preview 3
RED PLANET DEWSTRR preview 4
RED PLANET DEWSTRR preview 5
RED PLANET DEWSTRR preview 6
RED PLANET DEWSTRR preview 7
RED PLANET DEWSTRR preview 8
RED PLANET DEWSTRR preview 9
RED PLANET DEWSTRR preview 10
burned with windows [with a couple of other movies on a disk] and played on my philips divx ultra certified dvd player
be sure to set your dvd player on the correct aspect ratio

related torrents

Torrent name

health leech seeds Size

RED MIST DEWSTRR

0 0 682.00 MB 0
 


comments (0)

Main Menu