Rap

Terror Squad The Album

  • Download 5x Faster
  • Download torrent
  • Direct Download
  • Rate this torrent +  |  -
Terror Squad The Album

Free and Direct Download with Usenet 300GB+ free


Torrent info

Name:Terror Squad The Album

Total Size: 111.95 MB

Magnet: Magnet Link

Seeds: 0

Leechers: 0

Stream: Watch Online @ Movie4u

Last Updated: 2011-01-02 20:15:55 (Update Now)

Torrent added: 2009-08-29 12:15:49




Torrent Files List


01 - In For Life [feat. Big Pun, Triple Seis, Prospect and Cuban Link].mp3 (Size: 111.95 MB) (Files: 19)

 01 - In For Life [feat. Big Pun, Triple Seis, Prospect and Cuban Link].mp3

7.77 MB

 02 - Pass The Glock [feat. Triple Seis, Cuban Link, Armageaddon, Prospect, Big Pun and Fat Joe].mp3

7.51 MB

 03 - '99 Live [feat. Prospect].mp3

7.81 MB

 04 - Whatcha Gon Do [feat. Big Pun].mp3

5.05 MB

 05 - Triple Threat [feat. Armageaddon, Big Pun and Cuban Link].mp3

7.64 MB

 06 - War [feat. Triple Seis].mp3

5.52 MB

 07 - Bring It On [feat. Fat Joe].mp3

6.96 MB

 08 - As The World Turns [feat. Cuban Link, Prospect, Triple Seis and Tony Sunshine].mp3

7.45 MB

 09 - Gimmie Dat [feat. Armageaddon].mp3

5.67 MB

 10 - Feelin' This [feat. Armageaddon, Prospect and Big Pun].mp3

8.00 MB

 11 - All Around The World [feat. Cuban Link].mp3

6.74 MB

 12 - Tell Me What U Want [feat. Fat Joe, Armageaddon, Cuban Link and Tony Sunshine].mp3

7.97 MB

 13 - Rudeboy Salute [feat. Fat Joe, Buju Banton and Big Pun.mp3

7.05 MB

 14 - My Kinda Girls [feat. Tony Sunshine and Cuban Link].mp3

7.25 MB

 15 - Payin' Dues [feat. Armageaddon and Keith Nut].mp3

7.26 MB

 16 - www.thatsmysh-t.com [feat. Fat Joe, Triple Seis and The Bleach Brothers (Dirtman & Reka)].mp3

6.29 MB

 Terror Squad - The Album.m3u

2.27 KB

 The Album.CUE

3.55 KB

 The Album.log

4.58 KB
 

Announce URL: http://open.tracker.thepiratebay.org/announce

Torrent description


1. "In For Life" (Feat. Big Pun,Prospect,Fat Joe & Triple Seis)
2. "Pass The Glock" (Feat. Big Pun,Fat Joe,Prospect,Triple Seis,Cuban Link & Armageaddon)
3. "'99 Live" (Feat. Prospect)
4. "What'cha Gon' Do?" (Feat. Big Pun)
5. "Triple Threat" (Feat. Big Pun,Armageaddon & Cuban Link)
6. "War" (Feat. Triple Seis)
7. "Bring It On" (Feat. Fat Joe)
8. "As The World Turns" (Feat. Cuban Link,Tony Sunshine,Triple Seis & Prospect)
9. "Gimme Dat" (Feat. Armageaddon)
10. "Feelin' This" (Feat. Armageaddon,Propect & Big Pun)
11. "All Around The World" (Feat. Cuban Link)
12. "Tell Me What U Want" (Feat. Fat Joe,Armageaddon,Cuban Link & Tony Sunshine)
13. "Rudeboy Salute" (Feat. Fat Joe,Big Pun & Buju Banton)
14. "My Kinda Girls" (Feat. Tony Sunshine & Cuban Link)
15. "Payin' Dues" (Feat. Armageaddon & Keith Nut)

EAC extraction logfile from 20. April 2007, 21:01 for CD
Terror Squad / The Album

Used drive : PIONEER DVD-RW DVR-109 Adapter: 0 ID: 2
Read mode : Secure with NO C2, accurate stream, disable cache
Read offset correction : 44
Overread into Lead-In and Lead-Out : No

Used output format : C:\Program Files\Exact Audio Copy\lame.exe (User Defined Encoder)
256 kBit/s
Additional command line options : -V 0 --vbr-new --add-id3v2 --ignore-tag-errors --ta "%a" --tt "%t" --tg "%m" --tl "%g" --ty "%y" --tn "%n" %s %d

Other options :
Fill up missing offset samples with silence : Yes
Delete leading and trailing silent blocks : No
Native Win32 interface for Win NT & 2000


Track 1
Filename C:\RIPS\Terror Squad - The Album\01 - In For Life [feat. Big Pun, Triple Seis, Prospect and Cuban Link].wav

Pre-gap length 0:00:02.00

Peak level 100.0 %
Track quality 99.9 %
Test CRC 5956A6B7
Copy CRC 5956A6B7
Copy OK

Track 2
Filename C:\RIPS\Terror Squad - The Album\02 - Pass The Glock [feat. Triple Seis, Cuban Link, Armageaddon, Prospect, Big Pun and Fat Joe].wav

Peak level 100.0 %
Track quality 100.0 %
Test CRC 19F733CC
Copy CRC 19F733CC
Copy OK

Track 3
Filename C:\RIPS\Terror Squad - The Album\03 - '99 Live [feat. Prospect].wav

Peak level 100.0 %
Track quality 100.0 %
Test CRC 2E888849
Copy CRC 2E888849
Copy OK

Track 4
Filename C:\RIPS\Terror Squad - The Album\04 - Whatcha Gon Do [feat. Big Pun].wav

Peak level 100.0 %
Track quality 100.0 %
Test CRC A9ADB5CA
Copy CRC A9ADB5CA
Copy OK

Track 5
Filename C:\RIPS\Terror Squad - The Album\05 - Triple Threat [feat. Armageaddon, Big Pun and Cuban Link].wav

Peak level 100.0 %
Track quality 99.9 %
Test CRC 73AB2657
Copy CRC 73AB2657
Copy OK

Track 6
Filename C:\RIPS\Terror Squad - The Album\06 - War [feat. Triple Seis].wav

Peak level 100.0 %
Track quality 100.0 %
Test CRC 2E7F1A6B
Copy CRC 2E7F1A6B
Copy OK

Track 7
Filename C:\RIPS\Terror Squad - The Album\07 - Bring It On [feat. Fat Joe].wav

Peak level 100.0 %
Track quality 100.0 %
Test CRC 947FF39E
Copy CRC 947FF39E
Copy OK

Track 8
Filename C:\RIPS\Terror Squad - The Album\08 - As The World Turns [feat. Cuban Link, Prospect, Triple Seis and Tony Sunshine].wav

Peak level 100.0 %
Track quality 100.0 %
Test CRC C9458D47
Copy CRC C9458D47
Copy OK

Track 9
Filename C:\RIPS\Terror Squad - The Album\09 - Gimmie Dat [feat. Armageaddon].wav

Peak level 100.0 %
Track quality 99.9 %
Test CRC 1BE2F366
Copy CRC 1BE2F366
Copy OK

Track 10
Filename C:\RIPS\Terror Squad - The Album\10 - Feelin' This [feat. Armageaddon, Prospect and Big Pun].wav

Peak level 100.0 %
Track quality 100.0 %
Test CRC 568EEC00
Copy CRC 568EEC00
Copy OK

Track 11
Filename C:\RIPS\Terror Squad - The Album\11 - All Around The World [feat. Cuban Link].wav

Peak level 100.0 %
Track quality 99.9 %
Test CRC B81DDEE5
Copy CRC B81DDEE5
Copy OK

Track 12
Filename C:\RIPS\Terror Squad - The Album\12 - Tell Me What U Want [feat. Fat Joe, Armageaddon, Cuban Link and Tony Sunshine].wav

Peak level 100.0 %
Track quality 100.0 %
Test CRC C09BF500
Copy CRC C09BF500
Copy OK

Track 13
Filename C:\RIPS\Terror Squad - The Album\13 - Rudeboy Salute [feat. Fat Joe, Buju Banton and Big Pun.wav

Pre-gap length 0:00:00.90

Peak level 100.0 %
Track quality 100.0 %
Test CRC 3770BF86
Copy CRC 3770BF86
Copy OK

Track 14
Filename C:\RIPS\Terror Squad - The Album\14 - My Kinda Girls [feat. Tony Sunshine and Cuban Link].wav

Peak level 100.0 %
Track quality 99.9 %
Test CRC C3D20FE8
Copy CRC C3D20FE8
Copy OK

Track 15
Filename C:\RIPS\Terror Squad - The Album\15 - Payin' Dues [feat. Armageaddon and Keith Nut].wav

Peak level 100.0 %
Track quality 100.0 %
Test CRC 2FC136CA
Copy CRC 2FC136CA
Copy OK

Track 16
Filename C:\RIPS\Terror Squad - The Album\16 - www.thatsmysh-t.com [feat. Fat Joe, Triple Seis and The Bleach Brothers (Dirtman & Reka)].wav

Peak level 100.0 %
Track quality 100.0 %
Test CRC C4370AE5
Copy CRC C4370AE5
Copy OK

No errors occured


End of status report

related torrents

Torrent name

health leech seeds Size

Terror Squad

2 4 34.94 MB 0

Terror Squad The Album

0 0 111.95 MB 0
 

comments (0)

Main Menu