Sci-Fi

On The Silver Globe 1988 DVDRip x264 AC3 KARiNA

  • Download 5x Faster
  • Download torrent
  • Direct Download
  • Rate this torrent +  |  -
On The Silver Globe 1988 DVDRip x264 AC3 KARiNA

Free and Direct Download with Usenet 300GB+ free


Torrent info

Name:On The Silver Globe 1988 DVDRip x264 AC3 KARiNA

Total Size: 2.45 GB

Magnet: Magnet Link

Seeds: 6

Leechers: 3

Stream: Watch Online @ Movie4u

Last Updated: 2010-10-28 07:10:45 (Update Now)

Torrent added: 2009-08-29 12:12:17




Torrent Files List


On.The.Silver.Globe.1988.DVDRip.x264.AC3-KARiNA.mkv (Size: 2.45 GB) (Files: 2)

 On.The.Silver.Globe.1988.DVDRip.x264.AC3-KARiNA.mkv

2.45 GB

 otsg-KARiNA.nfo

7.17 KB
 

Announce URL: http://denis.stalker.h3q.com:6969/announce

Torrent description

88 a8P db 88888888ba 88 888b 88 db
88 ,88' d88b 88 "8b "" 8888b 88 d88b
88 ,88" d8'`8b 88 ,8P 88 `8b 88 d8'`8b
88,d88' d8' `8b 88aaaaaa8P' 88 88 `8b 88 d8' `8b
8888"88, d8YaaaaY8b 88""""88' 88 88 `8b 88 d8YaaaaY8b
88P Y8b d8""""""""8b 88 `8b 88 88 `8b 88 d8""""""""8b
88 "88, d8' `8b 88 `8b 88 88 `8888 d8' `8b
88 Y8b d8' `8b 88 `8b 88 88 `888 d8' `8b
-------------------------------------------------------------------------------
-------------------------------------
[ On.The.Silver.Globe.1988.DVDRip.x264.AC3-KARiNA.mkv ]
-------------------------------------

==================================[ Synopsis ]==================================

On the Silver Globe | Poland | 1988 | Directed by Andrzej Zulawski

The first half of the story involves three astronaut colonists - two male, one
female - who become stranded on the dark side of the moon, but are strangely able
to breathe and survive if they stay close to the water (hauntingly filmed near the
Baltic coast and the Crimean banks of The Black Sea). Like Adam and Eve, they
produce children of incest who create their own primitive society complete with
rival tribe factions and arcane ceremonies that celebrate the oldest surviving
spaceman (Jerzy Trela) as a god. The mystical locales, with their grim white sands
and melancholy gray-blue skies, set an appropriately nightmarish atmosphere, and
the wardrobe of pagan headdresses and ornate embroideries are like the gothic
fever-dream flipside of the hippie summer of love.

Kicking into an even more feverish gear, a lone astronaut named Marek (Andrzej
Seweryn) arrives to gather information on what happened to the original colonies.
His ill-fated rescue mission gives way to surrender as the tribes praise him as
their champion defender against the monstrous and fascistic winged raven-black
creatures that have enslaved them. Imagine The Last Temptation of Christ set
within the post-apocalyptic wreckage zone of Stalker. Zulawski's most notable
visuals include desperate pre-war orgies, a crucifixion that lifts the doomed
messiah 60 feet into the air, and the camera spiraling up gigantic spikes with
victims impaled upon them like savage Medieval offerings. Absurd and extreme but
never morbid, this European shock-cinema offering goes so far overboard in its
excess that it becomes a bleak comic spit into the face of organized religion,
organized society, and even organized narrative. It is completely out of control,
almost joyfully so, like a child knocking over sandcastles. As Zulawski says,
"The key to unhappiness is to control."

Zulawski's movies tackle big ideas, and if Possession is about the aching pain
of love, On the Silver Globe takes raging philosophical bites on the subject of
ethical freedom. Zulawski believes we are all unhappy, creating the image of God
so that we can tear it down again, or kill, or fulfill our hungers and be forgiven.
Heavy stuff, to be sure, but he expresses his thoughts through primal, kinetic images,
with a restless camera shoving its way forward into scenes like a parasite and
characters descending into caustic fits of love and hate. His films don't seem like
ponderous intellectual exercises, but highly emotional gut responses?nd endlessly
fascinating because we just aren't used to seeing that much spirited, hyperactive,
shrieking human feeling on screen at one time. When it's all over, it feels like
you've been through a cleansing sweat of tears. Viewers willing to jump into the
Zulawski abyss are encouraged to buckle their seatbelts and bring their crash helmets,
because it's a wild and bumpy trip down.

[ IMdB: http://www.imdb.com/title/tt0093593/ | Rating: 7.0 / 10 (189 votes) ]

=================================[ General ]===================================

Complete name : On.The.Silver.Globe.1988.DVDRip.x264.AC3-KARiNA.mkv
Format : Matroska
File size : 2.45 GiB
Duration : 2h 37mn
Overall bit rate : 2 226 Kbps
Source : Telewizja Kino Polska PAL DVD9

=================================[ Video ]=====================================

Format : AVC
Codec ID : V_MPEG4/ISO/AVC
Bit rate : 1 957 Kbps
Nominal bit rate : 2 000 Kbps
Width : 720 pixels
Height : 576 pixels
Display aspect ratio : 4/3
Frame rate : 25.000 fps
Standard : PAL
Resolution : 24 bits
Colorimetry : 4:2:0
Scan type : Progressive
Bits/(Pixel*Frame) : 0.189
Stream size : 2.15 GiB (88%)
Title : Track 1
Writing library : x264 core 65

=================================[ Audio ]=====================================

Format : AC-3
Codec ID : A_AC3
Bit rate mode : Constant
Bit rate : 224 Kbps
Channel(s) : 2 channels
Channel positions : L R
Sampling rate : 48.0 KHz
Stream size : 252 MiB (10%)
Title : Track 1
Language : Polish

=================================[ Subtitles ]=================================

Format : UTF-8
Codec ID : S_TEXT/UTF8
Title : Track 1
Language : English

=================================[ Chapters ]==================================

00:00:00.000 : :Chapter 1
00:09:44.880 : :Chapter 2
00:19:05.320 : :Chapter 3
00:28:03.200 : :Chapter 4
00:34:42.360 : :Chapter 5
00:47:51.000 : :Chapter 6
00:58:25.160 : :Chapter 7
01:08:42.040 : :Chapter 8
01:21:32.640 : :Chapter 9
01:29:14.080 : :Chapter 10
01:37:59.960 : :Chapter 11
01:50:17.200 : :Chapter 12
02:03:55.000 : :Chapter 13
02:10:25.240 : :Chapter 14
02:20:32.760 : :Chapter 15
02:28:48.400 : :Chapter 16

=================================[ KARiNA ]===================================

related torrents

Torrent name

health leech seeds Size
 

comments (0)

Main Menu