Sci-Fi

MINORITY REPORT DEWSTRR

  • Download 5x Faster
  • Download torrent
  • Direct Download
  • Rate this torrent +  |  -
MINORITY REPORT DEWSTRR

Free and Direct Download with Usenet 300GB+ free


Torrent info

Name:MINORITY REPORT DEWSTRR

Total Size: 1.46 GB

Magnet: Magnet Link

Seeds: 0

Leechers: 0

Stream: Watch Online @ Movie4u

Last Updated: 2009-12-02 09:27:49 (Update Now)

Torrent added: 2009-08-29 12:04:35




Torrent Files List


M R 1.jpg (Size: 1.46 GB) (Files: 14)

 M R 1.jpg

6.37 KB

 M R 1.sfv

1.33 KB

 M R 10.jpg

21.77 KB

 M R 2.jpg

18.65 KB

 M R 3.jpg

20.13 KB

 M R 4.jpg

29.28 KB

 M R 5.jpg

14.48 KB

 M R 6.jpg

30.23 KB

 M R 7.jpg

26.41 KB

 M R 8.jpg

21.96 KB

 M R 9.jpg

23.11 KB

 MINORITY REPORT.divx

1.46 GB

 MINORITY REPORT.NFO

2.76 KB

 Torrent_downloaded_from_Demonoid.com.txt

0.05 KB
 

Announce URL: http://inferno.demonoid.com:3407/announce

Torrent description

MINORITY REPORT DVDRIP SCI-FI THRILLER

In Washington, D.C., in the year 2054, murder has been eliminated. The future is seen and the guilty punished before the crime has ever been committed. From a nexus deep within the Justice Department's elite Pre-Crime unit, all the evidence to convict--from imagery alluding to the time, place and other details--is seen by "Pre-Cogs," three psychic beings whose visions of murders have never been wrong. It is the nation's most advanced crime force, a perfect system. And no one works harder for Pre-Crime than its top man, Chief John Anderton.

http://www.imdb.com/title/tt0181689/

Video
Format : MPEG-4 Visual
Format settings, BVOP : Yes
Format settings, QPel : No
Format settings, GMC : No warppoints
Format settings, Matrix : Default
Muxing mode : Packed bitstream
Codec ID : DX50
Codec ID/Hint : DivX 5
Duration : 2h 25mn
Bit rate : 1 300 Kbps
Width : 720 pixels
Height : 288 pixels
Display aspect ratio : 2.500
Frame rate : 23.976 fps
Resolution : 24 bits
Colorimetry : 4:2:0
Scan type : Progressive
Bits/(Pixel*Frame) : 0.262
Stream size : 1.32 GiB (90%)
Title : Video
Writing library : DivX 6.8.2 (UTC 2008-05-17)

Audio
Format : MPEG Audio
Format version : Version 1
Format profile : Layer 3
Codec ID : 55
Codec ID/Hint : MP3
Duration : 2h 25mn
Bit rate mode : Constant
Bit rate : 128 Kbps
Channel(s) : 2 channels
Sampling rate : 48.0 KHz
Resolution : 16 bits
Stream size : 133 MiB (9%)
Alignment : Split accross interleaves
Interleave, duration : 42 ms (1.00 video frame)
Interleave, preload duration : 500 ms
Title : Audio
Writing library : LAME3.92

General
Complete name : MINORITY REPORT\M R 1.sfv
File size : 1.33 KiB

General
Complete name : MINORITY REPORT\Torrent_downloaded_from_Demonoid.com.txt
File size : 47.0 Bytes
MINORITY REPORT  DEWSTRR preview 0
MINORITY REPORT  DEWSTRR preview 1
MINORITY REPORT  DEWSTRR preview 2
MINORITY REPORT  DEWSTRR preview 3
MINORITY REPORT  DEWSTRR preview 4
MINORITY REPORT  DEWSTRR preview 5
MINORITY REPORT  DEWSTRR preview 6
MINORITY REPORT  DEWSTRR preview 7
MINORITY REPORT  DEWSTRR preview 8
MINORITY REPORT  DEWSTRR preview 9
burned with windows [with a couple of other movies on a disk] and played on my philips divx ultra certified dvd player
be sure to set your dvd player on the correct aspect ratio

related torrents

Torrent name

health leech seeds Size
 

comments (0)

Main Menu