Sci-Fi

Matrix Reloaded DVDr Nl Subs Nlt Release By Zero Yuy

  • Download 5x Faster
  • Download torrent
  • Direct Download
  • Rate this torrent +  |  -
Matrix Reloaded DVDr Nl Subs Nlt Release By Zero Yuy

Free and Direct Download with Usenet 300GB+ free


Torrent info

Name:Matrix Reloaded DVDr Nl Subs Nlt Release By Zero Yuy

Total Size: 1.24 GB

Magnet: Magnet Link

Seeds: 2

Leechers: 6

Stream: Watch Online @ Movie4u

Last Updated: 2010-11-11 00:55:29 (Update Now)

Torrent added: 2009-08-29 11:59:38




Torrent Files List


Cover.jpg (Size: 1.24 GB) (Files: 5)

 Cover.jpg

23.85 KB

 Important! Torrent Created by Zero Yuy.txt

0.35 KB

 Matrix Reloaded.avi

1.24 GB

 Moviefile data.txt

1.49 KB

 Torrent_downloaded_from_Demonoid.com.txt

0.05 KB
 

Announce URL: http://inferno.demonoid.com:3410/announce

Torrent description

Brought to you by Nlt Release @

http://nlt.ons-forum.nl

http://www.moviemeter.nl/film/1958

Verenigde Staten
Actie / Science-Fiction
138 minuten

geregisseerd door Andy Wachowski en Larry Wachowski
met Keanu Reeves, Laurence Fishburne en Carrie-Anne Moss

De machines hebben de locatie van Zion, de laatste menselijke stad, gevonden. De enige hoop voor de rebellen is The Keymaker, een man met toegang tot alle deuren naar de machinewereld. Hij wordt echter bewaakt door The Twins, een gedreadlocked duo dat kan verdwijnen en verschijnen als geesten. Agent Smith kan zich inmiddels als een virus in The Matrix vermenigvuldigen, wat de zoektocht voor Neo, Trinity en Morpheus bemoeilijkt.

File info:

Algemeen
Format : AVI
Format/Info : Audio Video Interleave
Format profile : OpenDML
File size : 1,24 GiB
Duration : 2h 12mn
Overall bit rate : 504 Kbps
Writing application : Lavf51.12.1

Video
Format : xvid
Codec ID : xvid
Duration : 2h 12mn
Bit rate : 450 Kbps
Width : 720 pixels
Height : 576 pixels
Display aspect ratio : 5/4
Frame rate : 25,000 fps
Standard : PAL
Resolution : 24 bits
Bits/(Pixel*Frame) : 0.043
Stream size : 1,11 GiB (89%)

Audio
Format : MPEG Audio
Format version : Version 1
Format profile : Layer 3
Codec ID : 55
Codec ID/Hint : MP3
Duration : 2h 12mn
Bit rate : 128 Kbps
Channel(s) : 2 kanalen
Sampling rate : 48,0 KHz
Resolution : 16 bits
Stream size : 121 MiB (10%)
Interleave, duration : 24 ms (0.60 video frames)
Interleave, preload duration : 24 ms
Writing library : LAME3.97

related torrents

Torrent name

health leech seeds Size
 

comments (0)

Main Menu