Sci-Fi

Knowing 2009 DVDRIP XviD ZEKTORM

  • Download 5x Faster
  • Download torrent
  • Direct Download
  • Rate this torrent +  |  -
Knowing 2009 DVDRIP XviD ZEKTORM

Anonymous and Free Direct Download 300GB+


Torrent info

Name:Knowing 2009 DVDRIP XviD ZEKTORM

Total Size: 708.53 MB

Magnet: Magnet Link

Seeds: 6

Leechers: 1

Stream: Watch Online @ Movie4u

Last Updated: 2011-01-23 07:27:13 (Update Now)

Torrent added: 2009-08-29 11:43:49



VPN For Torrents

Torrent Files List


K-ZEKTORM.avi (Size: 708.53 MB) (Files: 5)

 K-ZEKTORM.avi

701.20 MB

 READ.hlp

11.27 KB

 Subs

  K-ZEKTORM.idx

90.73 KB

  K-ZEKTORM.sub

7.23 MB

 Torrent downloaded from Demonoid.com.txt

0.05 KB
 

Announce URL: http://inferno.demonoid.com:3415/announce

Torrent description

Format : AVI
File size : 701 MiB
Duration : 2h 1mn
Overall bit rate : 807 Kbps
Subtitles : English, Spanish (Format: VobSub)
Source : DVD NTSC

Video
Format : MPEG-4 Visual
Format profile : Streaming [email protected]
Codec ID : XVID
Codec ID/Hint : XviD
Duration : 2h 1mn
Bit rate : 682 Kbps
Width : 720 pixels
Height : 320 pixels
Display aspect ratio : 2.25
Frame rate : 23.976 fps
Resolution : 24 bits
Colorimetry : 4:2:0
Scan type : Progressive
Bits/(Pixel*Frame) : 0.123
Stream size : 593 MiB (85%)
Writing library : XviD

Audio
Format : MPEG Audio
Format version : Version 1
Format profile : Layer 3
Codec ID : 55
Codec ID/Hint : MP3
Duration : 2h 1mn
Bit rate mode : Variable
Bit rate : 112 Kbps
Minimum bit rate : 128 Kbps
Channel(s) : 2 channels
Sampling rate : 48.0 KHz
Resolution : 16 bits
Stream size : 97.6 MiB (14%)
Writing library : LAME3.98r
Encoding settings : ABR

related torrents

Torrent name

health leech seeds Size
 


comments (0)

Main Menu