Sci-Fi

Knowing 2009 DVDRip [Blueman]x264 mp4

  • Download 5x Faster
  • Download torrent
  • Direct Download
  • Rate this torrent +  |  -
Knowing 2009 DVDRip [Blueman]x264 mp4

Free and Direct Download with Usenet.nl 300GB+ free


Torrent info

Name:Knowing 2009 DVDRip [Blueman]x264 mp4

Total Size: 336.23 MB

Magnet: Magnet Link

Seeds: 0

Leechers: 0

Stream: Watch Online @ Movie4u

Last Updated: 2011-03-02 08:38:57 (Update Now)

Torrent added: 2009-08-29 11:43:18





Torrent Files List


Knowing.2009.DVDRip.[Blueman]x264.mp4 (Size: 336.23 MB) (Files: 1)

 Knowing.2009.DVDRip.[Blueman]x264.mp4

336.23 MB
 

Announce URL:

Torrent description

Video
ID : 1
Format : AVC
Format/Info : Advanced Video Codec
Duration : 2h 1mn
Bit rate mode : Variable
Bit rate : 352 Kbps
Width : 640 pixels
Height : 272 pixels
Display aspect ratio : 2.35
Frame rate mode : Constant
Frame rate : 23.976 fps
Resolution : 24 bits
Colorimetry : 4:2:0
Scan type : Progressive
Bits/(Pixel*Frame) : 0.084
Stream size : 306 MiB (91%)
Writing library : x264 core

Audio
ID : 2
Format : AAC
Format/Info : Advanced Audio Codec
Format profile : HE-AACv2
Codec ID : 40
Duration : 2h 1mn
Bit rate mode : Variable
Bit rate : 32.3 Kbps
Channel(s) : 2 channels
Sampling rate : 48.0 KHz
Resolution : 16 bits
Stream size : 28.1 MiB (8%)

related torrents

Torrent name

health leech seeds Size
 

comments (0)

Main Menu