Sci-Fi

Knowing 2009 BRRip 720p x264 [Blueman] mp4

  • Download 5x Faster
  • Download torrent
  • Direct Download
  • Rate this torrent +  |  -
Knowing 2009 BRRip 720p x264 [Blueman] mp4

Anonymous and Free Direct Download


Torrent info

Name:Knowing 2009 BRRip 720p x264 [Blueman] mp4

Total Size: 906.36 MB

Magnet: Magnet Link

Seeds: 0

Leechers: 0

Stream: Watch Online @ Movie4u

Last Updated: 2015-08-02 21:37:05 (Update Now)

Torrent added: 2009-08-29 11:43:07



VPN For Torrents

Torrent Files List


Knowing.2009.BRRip.720p.x264 [Blueman].mp4 (Size: 906.36 MB) (Files: 1)

 Knowing.2009.BRRip.720p.x264 [Blueman].mp4

906.36 MB
 

tracker

leech seeds
 

Torrent description

Video
ID : 1
Format : AVC
Format/Info : Advanced Video Codec
Codec ID : avc1
Codec ID/Info : Advanced Video Coding
Duration : 2h 1mn
Bit rate mode : Variable
Bit rate : 1 008 Kbps
Width : 1 280 pixels
Height : 544 pixels
Display aspect ratio : 2.35
Frame rate mode : Constant
Frame rate : 23.976 fps
Resolution : 24 bits
Colorimetry : 4:2:0
Scan type : Progressive
Bits/(Pixel*Frame) : 0.060
Stream size : 876 MiB (97%)
Writing library : x264

Audio
ID : 2
Format : AAC
Format/Info : Advanced Audio Codec
Format profile : HE-AACv2
Codec ID : 40
Duration : 2h 1mn
Bit rate mode : Variable
Bit rate : 32.4 Kbps
Maximum bit rate : 60.7 Kbps
Channel(s) : 2 channels
Sampling rate : 48.0 KHz
Resolution : 16 bits
Stream size : 28.1 MiB (3%)

related torrents

Torrent name

health leech seeds Size
 


comments (0)

Main Menu