Sci-Fi

Knowing (2009) Nicolas Cage (DVDrip optional MULTISUBS)

  • Download 5x Faster
  • Download torrent
  • Direct Download
  • Rate this torrent +  |  -


Torrent info

Name:Knowing (2009) Nicolas Cage (DVDrip optional MULTISUBS)

Total Size: 705.05 MB

Magnet: Magnet Link

Seeds: 8

Leechers: 6

Stream: Watch Online @ Movie4u

Last Updated: 2010-12-14 10:57:01 (Update Now)

Torrent added: 2009-08-29 11:42:47



VPN For Torrents

Torrent Files List


Info about this release.txt (Size: 705.05 MB) (Files: 16)

 Info about this release.txt

5.17 KB

 Knowing (2009) Nicholas Cage (DVDrip, optional MULTISUBS)_Kuth.avi

696.59 MB

 ZZ-Optional subtitles

  Arabic.rar

547.88 KB

  Chinese.rar

695.02 KB

  Danish.rar

652.95 KB

  Dutch 1 (called Nederlands).rar

645.61 KB

  Dutch 2 (possibly Flemish called Deutsch).rar

679.78 KB

  English for the hearing impaired.rar

847.51 KB

  Finnish.rar

643.17 KB

  Greek.rar

659.05 KB

  Hungarian.rar

678.01 KB

  Notes on subtitle files and burning of discs.txt

2.57 KB

  Polish.rar

719.17 KB

  Romanian.rar

629.83 KB

  Slovenian.rar

615.07 KB

  Spanish.rar

641.69 KB
 

Announce URL: http://tracker.thepiratebay.org/announce

Torrent description

Knowing (2009) Nicolas Cage (DVDrip, optional MULTISUBS)
http://www.imdb.com/title/tt0448011/

Optional subtitles in separate idx/sub files (Work in Windows Media Player etc., see enclosed Note): Arabic, Chinese, Danish, Dutch (possibly Flemish), Dutch (called Nederlands), English for the hearing impaired, Finnish, Greek, Hungarian, Polish (with small flaws in character set), Romanian (with small flaws in character set), Slovenian, Spanish.
(Sorry, Norwegian friends, your language was not in the selection. The Swedish was out of synch.)

A teacher opens a time capsule that has been dug up at his sons elementary school; in it are some chilling predictions -- some that have already occurred and others that are about to -- that lead him to believe his family plays a role in the events that are about to unfold.

My ripping procedure now produces decent quality for such a long film compressed
into just 700 MiB.

Widescreen DVDrip XviD 2-pass 720x288, great stereo sound AC3.
Runs well in both my standalone DivX players.

MediaInfo analysis of this rip:
Format : AVI
Format/Info : Audio Video Interleave
File size : 697 MiB
Duration : 2h 1mn
Overal bit rate : 802 Kbps

Video
Format : MPEG-4 Visual
Format profile : Streaming [email protected]
Format settings, BVOP : Yes
Format settings, QPel : No
Format settings, GMC : No warppoints
Format settings, Matrix : Default
Muxing mode : Packet Bitstream
Codec ID : XVID
Codec ID/Hint : XviD
Duration : 2h 1mn
Bit rate : 664 Kbps
Width : 720 pixels
Height : 288 pixels
Display aspect ratio : 2.500
Frame rate : 23.976 fps
Resolution : 8 bits
Colorimetry : 4:2:0
Scan type : Progressive
Bits/(Pixel*Frame) : 0.134
Stream size : 577 MiB
Writing library : XviD 1.2.0.dev47 (UTC 2006-11-01)

Audio
Format : MPEG Audio
Format version : Version 1
Format profile : Layer 3
Codec ID : 55
Codec ID/Hint : MP3
Duration : 2h 1mn
Bit rate mode : Constant
Bit rate : 128 Kbps
Minimum bit rate : 128 Kbps
Channel(s) : 2 channels
Sampling rate : 48.0 KHz
Resolution : 16 bits
Stream size : 111 MiB
Writing library : LAME3.97
Encoding settings : CBR

See original presentation at http://thepiratebay.org/user/Kuthumi/

related torrents

Torrent name

health leech seeds Size
 


comments (0)

Main Menu