Sci-Fi

Inhabited Island 2: The Battle (Obitaemyy Ostrov: Shvatka) 2009 XviD DVDRip STOP SNYATO NoRar™

  • Download 5x Faster
  • Download torrent
  • Direct Download
  • Rate this torrent +  |  -

Torrent info

Name:Inhabited Island 2: The Battle (Obitaemyy Ostrov: Shvatka) 2009 XviD DVDRip STOP SNYATO NoRar™

Total Size: 1.37 GB

Magnet: Magnet Link

Seeds: 0

Leechers: 0

Stream: Watch Online @ Movie4u

Last Updated: 2015-09-12 11:55:00 (Update Now)

Torrent added: 2009-08-29 11:33:50




Torrent Files List


Obitaemiy.ostrov-Shvatka.2009.XviD.DVDRip.STOP-SNYATO.avi (Size: 1.37 GB) (Files: 2)

 Obitaemiy.ostrov-Shvatka.2009.XviD.DVDRip.STOP-SNYATO.avi

1.37 GB

 Obitaemiy.ostrov-Shvatka.2009.XviD.DVDRip.STOP-SNYATO.srt

55.02 KB
 

tracker

leech seeds
 

Torrent description

Inhabited Island 2: The Battle (Obitaemyy Ostrov: Shvatka) 2009 XviD DVDRip STOP SNYATO NoRar™ preview 0

http://www.imdb.com/title/tt1399952/

The Inhabited Island 2 (International: English title)

http://www.imdb.com/title/tt0972558/

Fedor Bondarchuk’s Inhabited Island is divided on two parts. First Inhabited Island was already in theaters, the second one is coming on 23th April. The movie is based on Strugatsky Brothers’ novel and tells the story of Earth’s 20 y.o. boy Maxim, who got onto the totalitarian planet Saraksh in 2157.

Short synopsis:
The year 2157. The blossom times for the human civilization. Pilots of the Freelance Search Group enjoy interstellar travelling. A Russian spacecraft, piloted by a 22 year old Maxim Kammerer, crashes on the distant inhabited Saraksh planet. After long years of a nuclear war, an environmental crisis reigns over the planet, the society is overburdened with social problems, and the established peace is quite shaky. The brave astronaut will explore a mysterious land governed by the Unknown Fathers who are five anonymous rulers manipulating the inhabitants consciousness using special emitters. There Maxim will meet new friends, make enemies, find his love and, after getting through dangerous trials, hunger, mortal hazards and losses, will lead a rebel movement challenging the five greedy rulers.

Date of release: 23 April, 2009
Russian title: ????????? ??????: ???????
Transliteration: Obitaemyj Ostrov: Shvatka
Translated title: The Inhabited Island: The Battle

Script: Eduard Volodarsky / Marina and Sergei Dyachenko
Director of photography: Maxim Osadchy
Concept designer: Kirill Murzin
Second unit director: Rezo Gigineishvili
Second unit director of photography: Petr Brate, Artem Aksenenko, Boris Levkovich, Ivan Shurkhovetsky
Art director: Pavel Novikov
Dress designer: Tatyana Mamedova
Make-up designer: Dmitry Kirillov
Computer graphics superviser: Leonid Volosatov
Special effects director: Vladimir Karpovich
Composer: Yuri Poteyenko
Cast: Vasili Stepanov, Julia Snigir, Peter Fedorov, Aleksei Serebryakov, Fyodor Bondarchuk, Mikhail Yevlanov, Sergei Garmash, Gosha Kutsenko, Andrei Merzlikin, Anna Mikhalkova, Yuri Tsurilo, Ignati Akrachkov, Sergei Barkovsky, Maxim Sukhanov, Yevgeni Sidikhin, Kirill Pirogov, Aleksei Gorbunov, Alexander Feklistov and others
Production: ?T? Television Network, Art Pictures Group, Non-stop Production Studio

General
Complete name : E:Obitaemiy.ostrov-Shvatka.2009.XviD.DVDRip.STOP-SNYATOObitaemiy.ostrov-Shvatka.2009.XviD.DVDRip.STOP-SNYATO.avi
Format : AVI
Format/Info : Audio Video Interleave
File size : 1.37 GiB
Duration : 1h 42mn
Overall bit rate : 1 915 Kbps
Writing application : VirtualDubMod 1.5.10.2 (build 2540/release)
Writing library : VirtualDubMod build 2540/release

Video
Format : MPEG-4 Visual
Format profile : Streaming Video@L1
Format settings, BVOP : Yes
Format settings, QPel : No
Format settings, GMC : No warppoints
Format settings, Matrix : Default
Muxing mode : Packed bitstream
Codec ID : XVID
Codec ID/Hint : XviD
Duration : 1h 42mn
Bit rate : 1 457 Kbps
Width : 704 pixels
Height : 288 pixels
Display aspect ratio : 2.444
Frame rate : 25.000 fps
Resolution : 24 bits
Colorimetry : 4:2:0
Scan type : Progressive
Bits/(Pixel*Frame) : 0.287
Stream size : 1.05 GiB (76%)
Writing library : XviD 50

Audio
Format : AC-3
Format/Info : Audio Coding 3
Codec ID : 2000
Duration : 1h 42mn
Bit rate mode : Constant
Bit rate : 448 Kbps
Channel(s) : 6 channels
Channel positions : Front: L C R, Surround: L R, LFE
Sampling rate : 48.0 KHz
Stream size : 329 MiB (23%)
Alignment : Split accross interleaves
Interleave, duration : 40 ms (1.00 video frame)
Interleave, preload duration : 500 ms


related torrents

Torrent name

health leech seeds Size
 


comments (0)

Main Menu