Sci-Fi

Impact 2008 Part II R5 DVDRIP XviD ZEKTORM

  • Download 5x Faster
  • Download torrent
  • Direct Download
  • Rate this torrent +  |  -
Impact 2008 Part II R5 DVDRIP XviD ZEKTORM

Anonymous and Free Direct Download 300GB+


Torrent info

Name:Impact 2008 Part II R5 DVDRIP XviD ZEKTORM

Total Size: 701.97 MB

Magnet: Magnet Link

Seeds: 11

Leechers: 4

Stream: Watch Online @ Movie4u

Last Updated: 2011-01-04 12:34:08 (Update Now)

Torrent added: 2009-08-29 11:30:39



VPN For Torrents

Torrent Files List


Impact.2008.Part.II.DVDRIP.XviD-ZEKTORM.avi (Size: 701.97 MB) (Files: 2)

 Impact.2008.Part.II.DVDRIP.XviD-ZEKTORM.avi

701.96 MB

 READ.hlp

11.42 KB
 

Announce URL: http://tracker.torrentbox.com:2710/announce

Torrent description

Title : "Impact"
Year : 2008
Genre : Action | Adventure | Sci-Fi
iMDB URL : http://www.imdb.com/title/tt1227637/

Complete name : Impact.2008.Part.II.DVDRIP.XviD-ZEKTORM.avi
Format : AVI
File size : 702 MiB
Duration : 1h 31mn
Overall bit rate : 1073 Kbps
Source : DVD PAL R5

Video
Format : MPEG-4 Visual
Format profile : Streaming [email protected]
Codec ID : DX50
Codec ID/Hint : DivX 5
Duration : 1h 31mn
Bit rate : 938 Kbps
Width : 1024 pixels
Height : 576 pixels
Display aspect ratio : 16/9
Frame rate : 25.000 fps
Resolution : 24 bits
Colorimetry : 4:2:0
Scan type : Progressive
Bits/(Pixel*Frame) : 0.064
Stream size : 613 MiB (87%)
Writing library : XviD

Audio
Format : MPEG Audio
Format version : Version 1
Format profile : Layer 3
Codec ID : 55
Codec ID/Hint : MP3
Duration : 1h 31mn
Bit rate mode : Constant
Bit rate : 128 Kbps
Minimum bit rate : 128 Kbps
Channel(s) : 2 channels
Sampling rate : 48.0 KHz
Resolution : 16 bits
Stream size : 83.8 MiB (12%)
Writing library : LAME3.98r
Encoding settings : CBR

related torrents

Torrent name

health leech seeds Size
 


comments (0)

Main Menu