Sci-Fi

Fantastic Voyage (1966) English STEREO

  • Download 5x Faster
  • Download torrent
  • Direct Download
  • Rate this torrent +  |  -
Fantastic Voyage (1966) English STEREO

Anonymous and Free Direct Download


Torrent info

Name:Fantastic Voyage (1966) English STEREO

Total Size: 698.05 MB

Magnet: Magnet Link

Seeds: 0

Leechers: 0

Stream: Watch Online @ Movie4u

Last Updated: 0000-00-00 00:00:00 (Update Now)

Torrent added: 2009-08-29 11:02:30



VPN For Torrents

Torrent Files List


Fantastic Voyage (1966) Raquel Welch STEREO (Opt.SWESUBS)_Kuth.avi (Size: 698.05 MB) (Files: 4)

 Fantastic Voyage (1966) Raquel Welch STEREO (Opt.SWESUBS)_Kuth.avi

697.57 MB

 Info about this release.txt

4.51 KB

 Notes on subtitle files.txt

1.68 KB

 Optional Swedish subtitles.rar

478.62 KB
 

Announce URL: http://tracker.thepiratebay.org/announce

Torrent description

Fantastic Voyage (1966)
Opt SWESUBS

All available subs here

Classic Sci-Fi about the submarine with a small crew shrunken to microscopic size and injected into the bloodstream of a scientist to save his life. Surprising stereo sound and widescreen.

I had no idea that this film still was so popular. A recent upload of the full DVD gathered hundreds of downloaders, so I made this rip for those of you who cannot handle such dinosaurs. Thanks to Wormman for the upload.

DVDrip XviD 2-pass.
Widescreen 704x368, stereo AC3.

Burn tested, runs well in both my standalone DivX player.

Source: PAL retail (note that PAL/NTSC will give no problems for avi files)


Format/Info : Audio Video Interleave
File size : 698 MiB
Duration : 1h 36mn
Overal bit rate : 1015 Kbps

Video
Format : MPEG-4 Visual
Format profile : Streaming [email protected]
Format settings, BVOP : Yes
Format settings, QPel : No
Format settings, GMC : No warppoints
Format settings, Matrix : Default
Muxing mode : Packet Bitstream
Codec ID : XVID
Codec ID/Hint : XviD
Duration : 1h 36mn
Bit rate : 877 Kbps
Width : 704 pixels
Height : 368 pixels
Display aspect ratio : 1.913
Frame rate : 25.000 fps
Resolution : 8 bits
Colorimetry : 4:2:0
Scan type : Progressive
Bits/(Pixel*Frame) : 0.135
Stream size : 603 MiB
Writing library : XviD 1.2.0.dev47 (UTC 2006-11-01)

Audio
Format : MPEG Audio
Format version : Version 1
Format profile : Layer 3
Codec ID : 55
Codec ID/Hint : MP3
Duration : 1h 36mn
Bit rate mode : Constant
Bit rate : 128 Kbps
Minimum bit rate : 128 Kbps
Channel(s) : 2 channels
Sampling rate : 48.0 KHz
Resolution : 16 bits
Stream size : 88.0 MiB
Writing library : LAME3.97
Encoding settings : CBR

Thanks to Kuthumi!

related torrents

Torrent name

health leech seeds Size

Fantastic Voyage (1966)

0 2 28.08 MB 0
 


comments (0)

Main Menu