Sci-Fi

EVENT HORIZON DEWSTRR

  • Download 5x Faster
  • Download torrent
  • Direct Download
  • Rate this torrent +  |  -
EVENT HORIZON DEWSTRR

Download FREE And Anonymously


Torrent info

Name:EVENT HORIZON DEWSTRR

Total Size: 987.10 MB

Magnet: Magnet Link

Seeds: 1

Leechers: 3

Stream: Watch Full Movie @ Movie4u

Last Updated: 2010-01-14 13:57:18 (Update Now)

Torrent added: 2009-08-29 11:00:21



VPN For Torrents

Torrent Files List


E H 1.jpg (Size: 987.10 MB) (Files: 14)

 E H 1.jpg

15.01 KB

 E H 10.jpg

16.69 KB

 E H 2.jpg

12.59 KB

 E H 3.jpg

12.26 KB

 E H 4.jpg

20.74 KB

 E H 5.jpg

20.29 KB

 E H 6.jpg

30.43 KB

 E H 7.jpg

24.92 KB

 E H 8.jpg

16.39 KB

 E H 9.jpg

29.79 KB

 E H.SFV.sfv

1.65 KB

 EVENT HORIZON. DEWSTRR.divx

986.90 MB

 EVENT HORIZON.NFO

2.66 KB

 Torrent_downloaded_from_Demonoid.com.txt

0.05 KB
 

Announce URL: http://inferno.demonoid.com:3408/announce

Torrent description

EVENT HORIZON DVDRIP
Adventure | Fantasy | Horror | Mystery | Sci-Fi | Thriller

Seven years have passed since the mysterious disappearance of Event Horizon, a spaceship that was sent to explore the outer limits of our solar system using faster than light travel. Now, it is the time for a rescue mission that will find the ship and bring back the survivors; if any...

http://www.imdb.com/title/tt0119081/

Format : AVI
Format/Info : Audio Video Interleave
File size : 987 MiB
Duration : 1h 35mn
Overall bit rate : 1 438 Kbps

Video
Format : MPEG-4 Visual
Format settings, BVOP : Yes
Format settings, QPel : No
Format settings, GMC : No warppoints
Format settings, Matrix : Default
Codec ID : DX50
Codec ID/Hint : DivX 5
Duration : 1h 35mn
Bit rate : 1 301 Kbps
Width : 720 pixels
Height : 304 pixels
Display aspect ratio : 2.35
Frame rate : 23.976 fps
Resolution : 24 bits
Colorimetry : 4:2:0
Scan type : Progressive
Bits/(Pixel*Frame) : 0.248
Stream size : 893 MiB (90%)
Title : Video
Writing library : DivX 6.8.2 (UTC 2008-05-17)

Audio
Format : MPEG Audio
Format version : Version 1
Format profile : Layer 3
Codec ID : 55
Codec ID/Hint : MP3
Duration : 1h 35mn
Bit rate mode : Constant
Bit rate : 128 Kbps
Channel(s) : 2 channels
Sampling rate : 48.0 KHz
Resolution : 16 bits
Stream size : 87.8 MiB (9%)
Alignment : Split accross interleaves
Interleave, duration : 42 ms (1.00 video frame)
Interleave, preload duration : 500 ms
Title : Audio
Writing library : LAME3.92

General
Complete name : EVENT HORIZON.DEWSTRR\E H.sfv
File size : 1.65 KiB

General
Complete name : EVENT HORIZON.DEWSTRR\Torrent_downloaded_from_Demonoid.com.txt
File size : 47.0 Bytes
EVENT HORIZON DEWSTRR preview 0
EVENT HORIZON DEWSTRR preview 1
EVENT HORIZON DEWSTRR preview 2
EVENT HORIZON DEWSTRR preview 3
EVENT HORIZON DEWSTRR preview 4
EVENT HORIZON DEWSTRR preview 5
EVENT HORIZON DEWSTRR preview 6
EVENT HORIZON DEWSTRR preview 7
EVENT HORIZON DEWSTRR preview 8
EVENT HORIZON DEWSTRR preview 9
burned with windows [with a couple of other movies on a disk] and played on my philips divx ultra certified dvd player
be sure to set your dvd player on the correct aspect ratio

related torrents

Torrent name

health leech seeds Size
 


comments (0)

Main Menu

 

script data-cfasync="false" src="//d2ghscazvn398x.cloudfront.net/?cshgd=690275">