Sci-Fi

Earth Star Voyager avi

  • Download 5x Faster
  • Download torrent
  • Direct Download
  • Rate this torrent +  |  -
Earth Star Voyager avi

Anonymous and Free Direct Download 300GB+


Torrent info

Name:Earth Star Voyager avi

Total Size: 1.36 GB

Magnet: Magnet Link

Seeds: 0

Leechers: 0

Stream: Watch Online @ Movie4u

Last Updated: 2011-08-19 08:46:16 (Update Now)

Torrent added: 2009-08-29 10:51:46



VPN For Torrents

Torrent Files List


Earth_Star_Voyager.avi (Size: 1.36 GB) (Files: 1)

 Earth_Star_Voyager.avi

1.36 GB
 

Announce URL:

Torrent description

Director:
James Goldstone
Writer:
Ed Spielman (writer)
Release Date:
17 January 1988 (USA)
Genre:
Action | Adventure | Sci-Fi

The Earth Star Voyager is a spaceship sent to another solar system to prepare it for colonization. Earth itself is horribly polluted, so the mission is vitally important. But as the departing starship gets under way, signs begin to emerge that their mission may unwittingly be part of a larger conspiracy.


Cover: Earth Star Voyager avi preview 0
Earth Star Voyager avi preview 1

Quality: VHSRip
Format: AVI
Video codec: XviD
Audio codec: MP3

Video: Format : MPEG-4 Custom Codec ID : XVID Duration : 3h 0mn Bit rate : 908 Kbps Width : 704 pixels Height : 528 pixels Display aspect ratio : 4/3 Frame rate : 23.976 fps Resolution : 24 bits Colorimetry : 4:2:0 Scan type : Progressive Bits/(Pixel*Frame) : 0.102 Stream size : 1.14 GiB (84%)

Audio: Format : MPEG Audio Format version : Version 1 Format profile : Layer 3 Codec ID : 55 Codec ID/Hint : MP3 Duration : 3h 0mn Bit rate mode : Constant Bit rate : 160 Kbps Minimum bit rate : 160 Kbps Channel(s) : 2 channels Sampling rate : 48.0 KHz Resolution : 16 bits Stream size : 207 MiB (15%)

Screens:
http://bayimg.com/JaPdDaAbd
http://bayimg.com/JaPDEAAbD
http://bayimg.com/japDIaabd
http://bayimg.com/JapDKAaBD
http://bayimg.com/JApDnAABd
http://bayimg.com/KAPdBAaBd

related torrents

Torrent name

health leech seeds Size

Earth Star Voyager

0 0 1.21 GB 0
 


comments (0)

Main Menu