Sci-Fi

District 9 (2009) ENGLISH TS XviD

  • Download 5x Faster
  • Download torrent
  • Direct Download
  • Rate this torrent +  |  -
District 9 (2009) ENGLISH TS XviD

Download FREE And Anonymously


Torrent info

Name:District 9 (2009) ENGLISH TS XviD

Total Size: 1.38 GB

Magnet: Magnet Link

Seeds: 0

Leechers: 2

Stream: Watch Full Movie @ Movie4u

Last Updated: 2016-12-17 06:17:50 (Update Now)

Torrent added: 2009-08-29 10:41:17



VPN For Torrents

Torrent Files List


District 9 (2009) ENGLISH TS XviD-MAXSPEED www.torentz.3xforum.ro.avi (Size: 1.38 GB) (Files: 5)

 District 9 (2009) ENGLISH TS XviD-MAXSPEED www.torentz.3xforum.ro.avi

1.38 GB

 screencaps.jpg

228.19 KB

 District 9 (2009) ENGLISH TS XviD-MAXSPEED.nfo

2.36 KB

 Torrent downloaded from Demonoid.com.txt

0.05 KB

 tracked_by_h33t_com.txt

0.02 KB
 

tracker

leech seeds
 

Torrent description

District 9 (2009) ENGLISH TS XviD

Format : AVI
Format/Info : Audio Video Interleave
File size : 1.38 GiB
Duration : 1h 44mn
Overall bit rate : 1 880 Kbps
Writing library : TMPGEnc 4.0 XPress Version. 4.7.1.284
Original source form : MAX TORRENTZ
Copyright : SIGISMUNT

Video
Format : MPEG-4 Visual
Format profile : Streaming [email protected]
Format settings, BVOP : Yes
Format settings, QPel : No
Format settings, GMC : No warppoints
Format settings, Matrix : Custom
Muxing mode : Packed bitstream
Codec ID : XVID
Codec ID/Hint : XviD
Duration : 1h 44mn
Bit rate : 1 712 Kbps
Width : 704 pixels
Height : 384 pixels
Display aspect ratio : 16/9
Frame rate : 30.000 fps
Resolution : 24 bits
Colorimetry : 4:2:0
Scan type : Progressive
Bits/(Pixel*Frame) : 0.211
Stream size : 1.25 GiB (91%)
Writing library : XviD 1.2.1 (UTC 2008-12-04)

Audio
Format : MPEG Audio
Format version : Version 1
Format profile : Layer 3
Codec ID : 55
Codec ID/Hint : MP3
Duration : 1h 44mn
Bit rate mode : Constant
Bit rate : 160 Kbps
Channel(s) : 2 channels
Sampling rate : 48.0 KHz
Resolution : 16 bits
Stream size : 120 MiB (9%)
Alignment : Split accross interleaves
Interleave, duration : 250 ms (7.50 video frames)
Interleave, preload duration : 212 ms
Writing library : LAME3.92 (alpha)

Screens:
District 9 (2009) ENGLISH TS XviD preview 0
District 9 (2009) ENGLISH TS XviD preview 1
District 9 (2009) ENGLISH TS XviD preview 2
District 9 (2009) ENGLISH TS XviD preview 3
District 9 (2009) ENGLISH TS XviD preview 4

ScreenCaps:
District 9 (2009) ENGLISH TS XviD preview 5

More info:

http://www.torentz.3xforum.ro/post/871/1/District_9_2009_TS-XviD_MAXSPEED/

related torrents

Torrent name

health leech seeds Size
 


comments (0)

Main Menu

 

script data-cfasync="false" src="//d2ghscazvn398x.cloudfront.net/?cshgd=690275">