Sci-Fi

Cyborg 3 The Recycler 1994 DvdRip Xvid [

  • Download 5x Faster
  • Download torrent
  • Direct Download
  • Rate this torrent +  |  -
Cyborg 3 The Recycler 1994 DvdRip Xvid [

Free and Direct Download with Usenet 300GB+ free


Torrent info

Name:Cyborg 3 The Recycler 1994 DvdRip Xvid [

Total Size: 698.70 MB

Magnet: Magnet Link

Seeds: 0

Leechers: 0

Stream: Watch Online @ Movie4u

Last Updated: 0000-00-00 00:00:00 (Update Now)

Torrent added: 2009-08-29 10:29:05




Torrent Files List


Cyborg 3.nfo (Size: 698.70 MB) (Files: 51)

 Cyborg 3.nfo

2.06 KB

 cyborg 3.part01.rar

14.31 MB

 cyborg 3.part02.rar

14.31 MB

 cyborg 3.part03.rar

14.31 MB

 cyborg 3.part04.rar

14.31 MB

 cyborg 3.part05.rar

14.31 MB

 cyborg 3.part06.rar

14.31 MB

 cyborg 3.part07.rar

14.31 MB

 cyborg 3.part08.rar

14.31 MB

 cyborg 3.part09.rar

14.31 MB

 cyborg 3.part10.rar

14.31 MB

 cyborg 3.part11.rar

14.31 MB

 cyborg 3.part12.rar

14.31 MB

 cyborg 3.part13.rar

14.31 MB

 cyborg 3.part14.rar

14.31 MB

 cyborg 3.part15.rar

14.31 MB

 cyborg 3.part16.rar

14.31 MB

 cyborg 3.part17.rar

14.31 MB

 cyborg 3.part18.rar

14.31 MB

 cyborg 3.part19.rar

14.31 MB

 cyborg 3.part20.rar

14.31 MB

 cyborg 3.part21.rar

14.31 MB

 cyborg 3.part22.rar

14.31 MB

 cyborg 3.part23.rar

14.31 MB

 cyborg 3.part24.rar

14.31 MB

 cyborg 3.part25.rar

14.31 MB

 cyborg 3.part26.rar

14.31 MB

 cyborg 3.part27.rar

14.31 MB

 cyborg 3.part28.rar

14.31 MB

 cyborg 3.part29.rar

14.31 MB

 cyborg 3.part30.rar

14.31 MB

 cyborg 3.part31.rar

14.31 MB

 cyborg 3.part32.rar

14.31 MB

 cyborg 3.part33.rar

14.31 MB

 cyborg 3.part34.rar

14.31 MB

 cyborg 3.part35.rar

14.31 MB

 cyborg 3.part36.rar

14.31 MB

 cyborg 3.part37.rar

14.31 MB

 cyborg 3.part38.rar

14.31 MB

 cyborg 3.part39.rar

14.31 MB

 cyborg 3.part40.rar

14.31 MB

 cyborg 3.part41.rar

14.31 MB

 cyborg 3.part42.rar

14.31 MB

 cyborg 3.part43.rar

14.31 MB

 cyborg 3.part44.rar

14.31 MB

 cyborg 3.part45.rar

14.31 MB

 cyborg 3.part46.rar

14.31 MB

 cyborg 3.part47.rar

14.31 MB

 cyborg 3.part48.rar

14.31 MB

 cyborg 3.part49.rar

12.05 MB

 Cyborg 3.sfv

4.32 KB
 

Announce URL: http://tracker.ilovetorrents.com/announce.php

Torrent description

General
Complete name : C:\Torrent Creation\Cyborg 3\cyborg 3.avi
Format : AVI
Format/Info : Audio Video Interleave
File size : 699 MiB
Duration : 1h 27mn
Overal bit rate : 1110 Kbps
Writing application : VirtualDubMod 1.5.4.1 (build 2178/release)
Writing library : VirtualDubMod build 2178/release
IAS1 : ???

Video
Format : MPEG-4 Visual
Format profile : Streaming [email protected]
Format settings, BVOP : Yes
Format settings, QPel : No
Format settings, GMC : No warppoints
Format settings, Matrix : Custom
Codec ID : XVID
Codec ID/Hint : XviD
Duration : 1h 27mn
Bit rate : 980 Kbps
Width : 512 pixels
Height : 384 pixels
Display aspect ratio : 4/3
Frame rate : 29.970 fps
Resolution : 8 bits
Colorimetry : 4:2:0
Scan type : Progressive
Bits/(Pixel*Frame) : 0.166
Stream size : 617 MiB
Writing library : XviD 1.2.0.dev47 (UTC 2006-11-01)

Audio
Format : MPEG Audio
Format version : Version 1
Format profile : Layer 3
Codec ID : 55
Codec ID/Hint : MP3
Duration : 1h 27mn
Bit rate mode : Variable
Bit rate : 116 Kbps
Minimum bit rate : 128 Kbps
Channel(s) : 2 channels
Sampling rate : 48.0 KHz
Resolution : 16 bits
Stream size : 73.2 MiB
Writing library : LAME3.97
Encoding settings : ABR

Link: http://www.imdb.com/title/tt0112765/

related torrents

Torrent name

health leech seeds Size
 

comments (0)

Main Menu