Sci-Fi

Cyborg 2 1993 DvdRip Divx [

  • Download 5x Faster
  • Download torrent
  • Direct Download
  • Rate this torrent +  |  -
Cyborg 2 1993 DvdRip Divx [

Free and Direct Download with Usenet.nl 300GB+ free


Torrent info

Name:Cyborg 2 1993 DvdRip Divx [

Total Size: 700.26 MB

Magnet: Magnet Link

Seeds: 0

Leechers: 0

Stream: Watch Online @ Movie4u

Last Updated: 2013-08-25 11:22:37 (Update Now)

Torrent added: 2009-08-29 10:29:03





Torrent Files List


Cyborg 2 (1993) Dvdrip Divx5.2.part01.rar (Size: 700.26 MB) (Files: 51)

 Cyborg 2 (1993) Dvdrip Divx5.2.part01.rar

14.31 MB

 Cyborg 2 (1993) Dvdrip Divx5.2.part01.sfv

6.42 KB

 Cyborg 2 (1993) Dvdrip Divx5.2.part02.rar

14.31 MB

 Cyborg 2 (1993) Dvdrip Divx5.2.part03.rar

14.31 MB

 Cyborg 2 (1993) Dvdrip Divx5.2.part04.rar

14.31 MB

 Cyborg 2 (1993) Dvdrip Divx5.2.part05.rar

14.31 MB

 Cyborg 2 (1993) Dvdrip Divx5.2.part06.rar

14.31 MB

 Cyborg 2 (1993) Dvdrip Divx5.2.part07.rar

14.31 MB

 Cyborg 2 (1993) Dvdrip Divx5.2.part08.rar

14.31 MB

 Cyborg 2 (1993) Dvdrip Divx5.2.part09.rar

14.31 MB

 Cyborg 2 (1993) Dvdrip Divx5.2.part10.rar

14.31 MB

 Cyborg 2 (1993) Dvdrip Divx5.2.part11.rar

14.31 MB

 Cyborg 2 (1993) Dvdrip Divx5.2.part12.rar

14.31 MB

 Cyborg 2 (1993) Dvdrip Divx5.2.part13.rar

14.31 MB

 Cyborg 2 (1993) Dvdrip Divx5.2.part14.rar

14.31 MB

 Cyborg 2 (1993) Dvdrip Divx5.2.part15.rar

14.31 MB

 Cyborg 2 (1993) Dvdrip Divx5.2.part16.rar

14.31 MB

 Cyborg 2 (1993) Dvdrip Divx5.2.part17.rar

14.31 MB

 Cyborg 2 (1993) Dvdrip Divx5.2.part18.rar

14.31 MB

 Cyborg 2 (1993) Dvdrip Divx5.2.part19.rar

14.31 MB

 Cyborg 2 (1993) Dvdrip Divx5.2.part20.rar

14.31 MB

 Cyborg 2 (1993) Dvdrip Divx5.2.part21.rar

14.31 MB

 Cyborg 2 (1993) Dvdrip Divx5.2.part22.rar

14.31 MB

 Cyborg 2 (1993) Dvdrip Divx5.2.part23.rar

14.31 MB

 Cyborg 2 (1993) Dvdrip Divx5.2.part24.rar

14.31 MB

 Cyborg 2 (1993) Dvdrip Divx5.2.part25.rar

14.31 MB

 Cyborg 2 (1993) Dvdrip Divx5.2.part26.rar

14.31 MB

 Cyborg 2 (1993) Dvdrip Divx5.2.part27.rar

14.31 MB

 Cyborg 2 (1993) Dvdrip Divx5.2.part28.rar

14.31 MB

 Cyborg 2 (1993) Dvdrip Divx5.2.part29.rar

14.31 MB

 Cyborg 2 (1993) Dvdrip Divx5.2.part30.rar

14.31 MB

 Cyborg 2 (1993) Dvdrip Divx5.2.part31.rar

14.31 MB

 Cyborg 2 (1993) Dvdrip Divx5.2.part32.rar

14.31 MB

 Cyborg 2 (1993) Dvdrip Divx5.2.part33.rar

14.31 MB

 Cyborg 2 (1993) Dvdrip Divx5.2.part34.rar

14.31 MB

 Cyborg 2 (1993) Dvdrip Divx5.2.part35.rar

14.31 MB

 Cyborg 2 (1993) Dvdrip Divx5.2.part36.rar

14.31 MB

 Cyborg 2 (1993) Dvdrip Divx5.2.part37.rar

14.31 MB

 Cyborg 2 (1993) Dvdrip Divx5.2.part38.rar

14.31 MB

 Cyborg 2 (1993) Dvdrip Divx5.2.part39.rar

14.31 MB

 Cyborg 2 (1993) Dvdrip Divx5.2.part40.rar

14.31 MB

 Cyborg 2 (1993) Dvdrip Divx5.2.part41.rar

14.31 MB

 Cyborg 2 (1993) Dvdrip Divx5.2.part42.rar

14.31 MB

 Cyborg 2 (1993) Dvdrip Divx5.2.part43.rar

14.31 MB

 Cyborg 2 (1993) Dvdrip Divx5.2.part44.rar

14.31 MB

 Cyborg 2 (1993) Dvdrip Divx5.2.part45.rar

14.31 MB

 Cyborg 2 (1993) Dvdrip Divx5.2.part46.rar

14.31 MB

 Cyborg 2 (1993) Dvdrip Divx5.2.part47.rar

14.31 MB

 Cyborg 2 (1993) Dvdrip Divx5.2.part48.rar

14.31 MB

 Cyborg 2 (1993) Dvdrip Divx5.2.part49.rar

13.61 MB

 Cyborg 2.nfo

2.03 KB
 

Announce URL:

Torrent description

General
Complete name : C:\Torrent Creation\Cyborg 2\Cyborg 2 (1993) Dvdrip Divx5.2.avi
Format : AVI
Format/Info : Audio Video Interleave
File size : 700 MiB
Duration : 1h 39mn
Overal bit rate : 987 Kbps
Writing application : VirtualDubMod 1.5.4.1 (build 2178/release)
Writing library : VirtualDubMod build 2178/release
IAS1 : Unknown language

Video
Format : MPEG-4 Visual
Format settings, BVOP : No
Format settings, QPel : No
Format settings, GMC : No warppoints
Format settings, Matrix : Default
Codec ID : DX50
Codec ID/Hint : DivX 5
Duration : 1h 39mn
Bit rate : 849 Kbps
Width : 512 pixels
Height : 384 pixels
Display aspect ratio : 4/3
Frame rate : 23.976 fps
Resolution : 8 bits
Colorimetry : 4:2:0
Scan type : Progressive
Bits/(Pixel*Frame) : 0.180
Stream size : 602 MiB
Writing library : DivX 5.2.0 (UTC 2004-07-15)

Audio
Format : MPEG Audio
Format version : Version 1
Format profile : Layer 3
Codec ID : 55
Codec ID/Hint : MP3
Duration : 1h 39mn
Bit rate mode : Variable
Bit rate : 126 Kbps
Nominal bit rate : 128 Kbps
Channel(s) : 2 channels
Sampling rate : 48.0 KHz
Resolution : 16 bits
Stream size : 89.1 MiB
Writing library : LAME3.90.
Encoding settings : ABR

Link: http://www.imdb.com/title/tt0106639/

related torrents

Torrent name

health leech seeds Size

Cyborg 2 (1993) DVD5

5 4 4.37 GB 0

Cyborg 2 (1993) DVDRip

2 8 700.01 MB 0
 

comments (0)

Main Menu