Sci-Fi

Cyborg 1 1989 DvdRip Divx [

  • Download 5x Faster
  • Download torrent
  • Direct Download
  • Rate this torrent +  |  -
Cyborg 1 1989 DvdRip Divx [

Free and Direct Download with Usenet.nl 300GB+ free


Torrent info

Name:Cyborg 1 1989 DvdRip Divx [

Total Size: 650.11 MB

Magnet: Magnet Link

Seeds: 0

Leechers: 0

Stream: Watch Online @ Movie4u

Last Updated: 2010-09-22 20:08:16 (Update Now)

Torrent added: 2009-08-29 10:28:49





Torrent Files List


Cyborg 1.nfo (Size: 650.11 MB) (Files: 48)

 Cyborg 1.nfo

1.83 KB

 Cyborg 1.part01.rar

14.31 MB

 Cyborg 1.part02.rar

14.31 MB

 Cyborg 1.part03.rar

14.31 MB

 Cyborg 1.part04.rar

14.31 MB

 Cyborg 1.part05.rar

14.31 MB

 Cyborg 1.part06.rar

14.31 MB

 Cyborg 1.part07.rar

14.31 MB

 Cyborg 1.part08.rar

14.31 MB

 Cyborg 1.part09.rar

14.31 MB

 Cyborg 1.part10.rar

14.31 MB

 Cyborg 1.part11.rar

14.31 MB

 Cyborg 1.part12.rar

14.31 MB

 Cyborg 1.part13.rar

14.31 MB

 Cyborg 1.part14.rar

14.31 MB

 Cyborg 1.part15.rar

14.31 MB

 Cyborg 1.part16.rar

14.31 MB

 Cyborg 1.part17.rar

14.31 MB

 Cyborg 1.part18.rar

14.31 MB

 Cyborg 1.part19.rar

14.31 MB

 Cyborg 1.part20.rar

14.31 MB

 Cyborg 1.part21.rar

14.31 MB

 Cyborg 1.part22.rar

14.31 MB

 Cyborg 1.part23.rar

14.31 MB

 Cyborg 1.part24.rar

14.31 MB

 Cyborg 1.part25.rar

14.31 MB

 Cyborg 1.part26.rar

14.31 MB

 Cyborg 1.part27.rar

14.31 MB

 Cyborg 1.part28.rar

14.31 MB

 Cyborg 1.part29.rar

14.31 MB

 Cyborg 1.part30.rar

14.31 MB

 Cyborg 1.part31.rar

14.31 MB

 Cyborg 1.part32.rar

14.31 MB

 Cyborg 1.part33.rar

14.31 MB

 Cyborg 1.part34.rar

14.31 MB

 Cyborg 1.part35.rar

14.31 MB

 Cyborg 1.part36.rar

14.31 MB

 Cyborg 1.part37.rar

14.31 MB

 Cyborg 1.part38.rar

14.31 MB

 Cyborg 1.part39.rar

14.31 MB

 Cyborg 1.part40.rar

14.31 MB

 Cyborg 1.part41.rar

14.31 MB

 Cyborg 1.part42.rar

14.31 MB

 Cyborg 1.part43.rar

14.31 MB

 Cyborg 1.part44.rar

14.31 MB

 Cyborg 1.part45.rar

14.31 MB

 Cyborg 1.part46.rar

6.38 MB

 Cyborg 1.sfv

4.06 KB
 

Announce URL: http://tracker.ilovetorrents.com/announce.php

Torrent description

General
Complete name : C:\Torrent Creation\Cyborg 1\Cyborg 1.avi
Format : AVI
Format/Info : Audio Video Interleave
File size : 650 MiB
Duration : 1h 26mn
Overal bit rate : 1056 Kbps

Video
Format : MPEG-4 Visual
Format settings, BVOP : Yes
Format settings, QPel : No
Format settings, GMC : No warppoints
Format settings, Matrix : Default
Muxing mode : Packet Bitstream
Codec ID : DX50
Codec ID/Hint : DivX 5
Duration : 1h 26mn
Bit rate : 922 Kbps
Width : 720 pixels
Height : 384 pixels
Display aspect ratio : 1.875
Frame rate : 23.976 fps
Resolution : 8 bits
Colorimetry : 4:2:0
Scan type : Progressive
Bits/(Pixel*Frame) : 0.139
Stream size : 567 MiB
Title : Video
Writing library : DivX 5.2.1 Alpha (UTC 2004-09-08)

Audio
Format : MPEG Audio
Format version : Version 1
Format profile : Layer 3
Codec ID : 55
Codec ID/Hint : MP3
Duration : 1h 26mn
Bit rate mode : Variable
Bit rate : 128 Kbps
Channel(s) : 2 channels
Sampling rate : 44.1 KHz
Resolution : 16 bits
Stream size : 75.4 MiB
Title : Audio

Link: http://www.imdb.com/title/tt0097138/

related torrents

Torrent name

health leech seeds Size

Cyborg 1989 German Dvdr

0 5 2.00 GB 0

Cyborg 1989 Swesub

49 135 700.60 MB 0
 

comments (0)

Main Menu