Sci-Fi

Cube 1997 DVDRIP ZEKTORM

  • Download 5x Faster
  • Download torrent
  • Direct Download
  • Rate this torrent +  |  -
Cube 1997 DVDRIP ZEKTORM

Free and Direct Download with Usenet.nl 300GB+ free


Torrent info

Name:Cube 1997 DVDRIP ZEKTORM

Total Size: 705.02 MB

Magnet: Magnet Link

Seeds: 11

Leechers: 1

Stream: Watch Online @ Movie4u

Last Updated: 2011-12-09 09:12:39 (Update Now)

Torrent added: 2009-08-29 10:28:30





Torrent Files List


Cube.1997.DVDRIP-ZEKTORM.mp4 (Size: 705.02 MB) (Files: 4)

 Cube.1997.DVDRIP-ZEKTORM.mp4

700.16 MB

 READ.hlp

12.79 KB

 Subs

  Cube.1997.DVDRIP-ZEKTORM.idx

83.01 KB

  Cube.1997.DVDRIP-ZEKTORM.sub

4.76 MB
 

Announce URL: http://tracker.torrentbox.com:2710/announce

Torrent description

Title : Cube
Year : 1997
Genre : Drama | Horror | Mystery | Sci-Fi | Thriller
iMDB Rate : User Rating: 7.5/10 37,496 votes
iMDB URL : http://www.imdb.com/title/tt0123755/
Awards : 13 wins & 6 nominations

Complete name : Cube.1997.DVDRIP-ZEKTORM.mp4
Format : MPEG-4
Format profile : Base Media
Codec ID : isom
File size : 700 MiB
Duration : 1h 26mn
Overall bit rate : 1128 Kbps
Subtitles : English, Spanish (Format: VobSub)
Source : DVD PAL
Encoded date : UTC 2009-01-05 13:02:34

Video
Format : AVC
Format/Info : Advanced Video Codec
Format profile : [email protected]
Format settings, CABAC : Yes
Format settings, ReFrames : 10 frames
Codec ID : avc1
Codec ID/Info : Advanced Video Coding
Duration : 1h 26mn
Bit rate mode : Variable
Bit rate : 1044 Kbps
Maximum bit rate : 6160 Kbps
Width : 704 pixels
Height : 416 pixels
Display aspect ratio : 16/9
Frame rate mode : Constant
Frame rate : 25.000 fps
Resolution : 24 bits
Colorimetry : 4:2:0
Scan type : Progressive
Bits/(Pixel*Frame) : 0.143
Stream size : 648 MiB (93%)
Title : Video
Writing library : x264 core 60 r900 a9af942

Audio
Format : AAC
Format/Info : Advanced Audio Codec
Format version : Version 4
Format profile : LC
Format settings, SBR : Yes
Format settings, PS : No
Codec ID : 40
Duration : 1h 26mn
Bit rate mode : Variable
Bit rate : 81.0 Kbps
Maximum bit rate : 109 Kbps
Channel(s) : 2 channels
Channel positions : L R
Sampling rate : 48.0 KHz
Resolution : 16 bits
Stream size : 50.3 MiB (7%)
Title : English
Language : English

Notes : Convert to DVD with Nero

related torrents

Torrent name

health leech seeds Size

Cube 1997

0 1 699.00 MB 0

Cube (1997)

0 3 628.00 MB 0

Cube (1997) Bdrip 720p

34 15 2.00 GB 0
 

comments (0)

Main Menu