Sci-Fi

Caprica 2009 DVDRIP XviD ZEKTORM

  • Download 5x Faster
  • Download torrent
  • Direct Download
  • Rate this torrent +  |  -
Caprica 2009 DVDRIP XviD ZEKTORM

Free and Direct Download with Usenet 300GB+ free


Torrent info

Name:Caprica 2009 DVDRIP XviD ZEKTORM

Total Size: 705.39 MB

Magnet: Magnet Link

Seeds: 9

Leechers: 4

Stream: Watch Online @ Movie4u

Last Updated: 2011-01-09 11:33:55 (Update Now)

Torrent added: 2009-08-29 10:16:05




Torrent Files List


Caprica.2009.DVDRIP.XviD-ZEKTORM.avi (Size: 705.39 MB) (Files: 4)

 Caprica.2009.DVDRIP.XviD-ZEKTORM.avi

700.90 MB

 READ.hlp

11.42 KB

 Subs

  Caprica.2009.DVDRIP.XviD-ZEKTORM.idx

57.81 KB

  Caprica.2009.DVDRIP.XviD-ZEKTORM.sub

4.42 MB
 

Announce URL: http://tracker.torrentbox.com:2710/announce

Torrent description

Title : "Caprica"
Year : 2009
Genre : Action | Drama | Sci-Fi
iMDB URL : http://www.imdb.com/title/tt0799862/

Complete name : Caprica.2009.DVDRIP.XviD-ZEKTORM.avi
Format : AVI
File size : 701 MiB
Duration : 1h 32mn
Overall bit rate : 1061 Kbps
Subtitles : English (Format: VobSub)
Source : DVD NTSC

Video
Format : MPEG-4 Visual
Format profile : Streaming [email protected]
Codec ID : DX50
Codec ID/Hint : DivX 5
Duration : 1h 32mn
Bit rate : 926 Kbps
Width : 720 pixels
Height : 416 pixels
Display aspect ratio : 16/9
Frame rate : 23.976 fps
Resolution : 24 bits
Colorimetry : 4:2:0
Scan type : Progressive
Bits/(Pixel*Frame) : 0.129
Stream size : 612 MiB (87%)
Writing library : XviD

Audio
Format : MPEG Audio
Format version : Version 1
Format profile : Layer 3
Codec ID : 55
Codec ID/Hint : MP3
Duration : 1h 32mn
Bit rate mode : Constant
Bit rate : 128 Kbps
Minimum bit rate : 128 Kbps
Channel(s) : 2 channels
Sampling rate : 48.0 KHz
Resolution : 16 bits
Stream size : 84.5 MiB (12%)
Writing library : LAME3.98r
Encoding settings : CBR

related torrents

Torrent name

health leech seeds Size
 

comments (0)

Main Menu