Sci-Fi

BLADE RUNNER DEWSTRR

  • Download 5x Faster
  • Download torrent
  • Direct Download
  • Rate this torrent +  |  -
BLADE RUNNER DEWSTRR

Anonymous and Free Direct Download


Torrent info

Name:BLADE RUNNER DEWSTRR

Total Size: 1.18 GB

Magnet: Magnet Link

Seeds: 0

Leechers: 0

Stream: Watch Online @ Movie4u

Last Updated: 2009-12-29 06:20:46 (Update Now)

Torrent added: 2009-08-29 10:11:29



VPN For Torrents

Torrent Files List


B R 1.jpg (Size: 1.18 GB) (Files: 14)

 B R 1.jpg

5.08 KB

 B R 1.sfv

1.46 KB

 B R 10.jpg

13.07 KB

 B R 2.jpg

12.99 KB

 B R 3.jpg

16.51 KB

 B R 4.jpg

25.82 KB

 B R 5.jpg

10.60 KB

 B R 6.jpg

12.94 KB

 B R 7.jpg

17.70 KB

 B R 8.jpg

11.76 KB

 B R 9.jpg

12.98 KB

 BLADE RUNNER.DEWSTRR.divx

1.18 GB

 BLADE RUNNER.DEWSTRR.NFO

3.06 KB

 Torrent_downloaded_from_Demonoid.com.txt

0.05 KB
 

Announce URL: http://inferno.demonoid.com:3407/announce

Torrent description

BLADE RUNNER DVDRIP
The Final Cut Action Sci-Fi Thriller

In Los Angeles, November 2019, Rick Deckard (Harrison Ford) is called out of retirement when a fellow Blade Runner, Holden (Morgan Paull) is shot administering a Voight-Kampff test to Leon (Brion James), an escaped replicant. A reluctant Deckard is brought to his old boss Bryant (M. Emmet Walsh), who informs him that the recent escape of Nexus-6 replicants is the worst yet. He orders Deckard to eliminate the four replicants, a process referred to as "retirement".
Roy Batty (Rutger Hauer), the leader, is a "combat model"; Leon Kowalski (Brion James) is a nuclear fuel loader; Zhora (Joanna Cassidy) is an assassin built for martial arts; and Pris (Daryl Hannah) is a "basic pleasure model". Bryant also explains that the Nexus-6 model has a four-year lifespan as a failsafe to prevent them from developing emotions and desire for independence.

http://www.imdb.com/title/tt0083658/

Video
Format : MPEG-4 Visual
Format settings, BVOP : Yes
Format settings, QPel : No
Format settings, GMC : No warppoints
Format settings, Matrix : Default
Codec ID : DX50
Codec ID/Hint : DivX 5
Duration : 1h 57mn
Bit rate : 1 300 Kbps
Width : 720 pixels
Height : 304 pixels
Display aspect ratio : 2.35
Frame rate : 23.976 fps
Resolution : 24 bits
Colorimetry : 4:2:0
Scan type : Progressive
Bits/(Pixel*Frame) : 0.248
Stream size : 1.07 GiB (90%)
Title : Video
Writing library : DivX 6.8.2 (UTC 2008-05-17)

Audio
Format : MPEG Audio
Format version : Version 1
Format profile : Layer 3
Codec ID : 55
Codec ID/Hint : MP3
Duration : 1h 57mn
Bit rate mode : Constant
Bit rate : 128 Kbps
Channel(s) : 2 channels
Sampling rate : 48.0 KHz
Resolution : 16 bits
Stream size : 108 MiB (9%)
Alignment : Split accross interleaves
Interleave, duration : 42 ms (1.00 video frame)
Interleave, preload duration : 500 ms
Title : Audio
Writing library : LAME3.92

General
Complete name : BLADE RUNNER.DEWSTRR\B R 1.sfv
File size : 1.46 KiB

General
Complete name : BLADE RUNNER.DEWSTRR\Torrent_downloaded_from_Demonoid.com.txt
File size : 47.0 Bytes
BLADE RUNNER DEWSTRR preview 0
BLADE RUNNER DEWSTRR preview 1
BLADE RUNNER DEWSTRR preview 2
BLADE RUNNER DEWSTRR preview 3
BLADE RUNNER DEWSTRR preview 4
BLADE RUNNER DEWSTRR preview 5
BLADE RUNNER DEWSTRR preview 6
BLADE RUNNER DEWSTRR preview 7
BLADE RUNNER DEWSTRR preview 8
BLADE RUNNER DEWSTRR preview 9
burned with windows [with a couple of other movies on a disk] and played on my philips divx ultra certified dvd player
be sure to set your dvd player on the correct aspect ratio

related torrents

Torrent name

health leech seeds Size
 


comments (0)

Main Menu