Sci-Fi

Blade Runner (1982) WORKPRINT (kubura)

  • Download 5x Faster
  • Download torrent
  • Direct Download
  • Rate this torrent +  |  -
Blade Runner (1982) WORKPRINT (kubura)

Download FREE And Anonymously


Torrent info

Name:Blade Runner (1982) WORKPRINT (kubura)

Total Size: 806.87 MB

Magnet: Magnet Link

Seeds: 1

Leechers: 1

Stream: Watch Full Movie @ Movie4u

Last Updated: 2010-09-22 05:53:12 (Update Now)

Torrent added: 2009-08-29 10:08:42



VPN For Torrents

Torrent Files List


Blade.Runner.(1982).WORKPRINT-(kubura).avi (Size: 806.87 MB) (Files: 5)

 Blade.Runner.(1982).WORKPRINT-(kubura).avi

797.35 MB

 Blade.Runner.(1982).WORKPRINT-(kubura).nfo

3.84 KB

 Blade.Runner.(1982).WORKPRINT-(kubura).srt

60.74 KB

 Torrent downloaded from Demonoid.com.txt

0.05 KB

 Watch This Before Movie.avi

9.46 MB
 

Announce URL: http://tracker.thepiratebay.org:80/announce

Torrent description

Workprint version (1982)
------------------------
The full workprint version of the movie was released to the public on DVD as
part of the five-disc boxed set containing the Final Cut, in 2007. It has the
following differences:

* There is no voice-over, no "unicorn vision", and no "happy ending".
However, Deckard does have a brief narration directly after Batty's death.
* There is no opening crawl: a static screen of text, showing a dictionary
definition of the word "Replicant", replaces it.
* In the scene at the Asian restaurant at the beginning, there is an insert
shot of the dish Deckard orders.
* From Deckard's arrival at the Bradbury building to the end of the film,
the Vangelis music score is missing, presumably not yet composed at the
time this version was made. It is replaced by placeholder music.
* Deckard is seen taking a few moments struggling to remove the tie that Zhora
choked him with, before beginning to chase her.
* Batty addresses Tyrell as "father" (not "fucker") when asking for more life,
as in the Final Cut.
* When Batty kills Tyrell, the scene is a combination of the "violent" footage from the
International Edition and the "non-violent" footage from the theatrical original.
Batty still pokes out Tyrell's eyes with his thumbs,
but Tyrell is seen falling to the floor as in the original.
* When Pris attacks Deckard, the scene is again a combination of the International Edition
and the original. Pris hits Deckard three times, and also holds him up by his nostrils.
However, Deckard still shoots her only twice.
* The scene in which Batty pushes a nail through his hand is identical to the
"non-violent" version in the Theatrical Release.
* There are no ending credits.
-------------------------------------------------------------------------------------------
General:
--------
Complete name : Blade Runner (1982) WORKPRINT
Format : AVI
Format/Info : Audio Video Interleave
File size : 797 MiB
Duration : 1h 45mn
Overall bit rate : 1 057 Kbps
Writing library : VirtualDub build 30080/release

Video
Format : MPEG-4 Visual
Format profile : Streaming [email protected]
Format settings, BVOP : Yes
Format settings, QPel : No
Format settings, GMC : No warppoints
Format settings, Matrix : Default
Codec ID : DX50
Codec ID/Hint : DivX 5
Duration : 1h 45mn
Bit rate : 935 Kbps
Width : 640 pixels
Height : 288 pixels
Display aspect ratio : 2.222
Frame rate : 25.000 fps
Resolution : 24 bits
Colorimetry : 4:2:0
Scan type : Progressive
Bits/(Pixel*Frame) : 0.203
Stream size : 706 MiB (88%)
Writing library : XviD 1.1.2

Audio
Format : MPEG Audio
Format version : Version 1
Format profile : Layer 3
Codec ID : 55
Codec ID/Hint : MP3
Duration : 1h 45mn
Bit rate mode : Constant
Bit rate : 112 Kbps
Channel(s) : 2 channels
Sampling rate : 48.0 KHz
Resolution : 16 bits
Stream size : 84.5 MiB (11%)
Alignment : Split accross interleaves
Interleave, duration : 40 ms (1.00 video frame)
Interleave, preload duration : 500 ms
Writing library : LAME3.97

related torrents

Torrent name

health leech seeds Size
 


comments (0)

Main Menu

 

script data-cfasync="false" src="//d2ghscazvn398x.cloudfront.net/?cshgd=690275">