Sci-Fi

Baal Das Vermaechtnis des Sturmgottes 2008 Deutsch DVDrip Xvid [mnvv2 info]

  • Download 5x Faster
  • Download torrent
  • Direct Download
  • Rate this torrent +  |  -

Torrent info

Name:Baal Das Vermaechtnis des Sturmgottes 2008 Deutsch DVDrip Xvid [mnvv2 info]

Total Size: 699.93 MB

Magnet: Magnet Link

Seeds: 0

Leechers: 0

Stream: Watch Online @ Movie4u

Last Updated: 2009-12-02 08:11:36 (Update Now)

Torrent added: 2009-08-29 09:56:34



VPN For Torrents

Torrent Files List


Baal.Das.Vermaechtnis.des.Sturmgotte.avi (Size: 699.93 MB) (Files: 3)

 Baal.Das.Vermaechtnis.des.Sturmgotte.avi

699.89 MB

 bild.jpg

39.96 KB

 info.txt

2.92 KB
 

Announce URL: http://announce.mnvv2.info/announce.php

Torrent description

Baal
Erscheinungsjahr

2008
Produktionsländer

Kanada, USA
Genre

Science-Fiction
Regie

Paul Ziller
Autoren

Andrew Black, Paul Ziller
Darsteller

Derek Anderson, Peter Benson, Cedric De Souza, Lexa Doig, Michael Kopsa, Zen Shane Lim, Jeremy

London, Elias Toufexis, Stefanie von Pfetten

Eine Gruppe von Archäologen versucht, die vier sagenumwobenen Amulette des Sturmgottes Baal,

zu finden. Doch durch die Ausgrabungen wird der furchterregende Gott wiedererweckt, der in Form

einer mächtigen, zerstörerischen Sturmfront über die Welt zieht und jetzt Kurs auf USA nimmt.

Wissenschaftler arbeiten fieberhaft daran, eine Mittel gegen den mysteriösen Supersturm zu

finden, doch sie scheinen machtlos zu sein. Nur zwei Archäologen gelingt es, hinter das

Geheimnis des zerstörerischen Baal zu kommen. Doch werden sie es schaffen, den Fluch des

Gottes zu stoppen?


Format : AVI
Format/Info : Audio Video Interleave
Dateigre : 700 MiB
Duration : 1h 27min
Gesamte Bitrate : 1124 Kbps
Verwendetes Programm : Nandub v1.0rc2
verwendete Encoder-Bibliothek : Nandub build 1853/release

Video
Format : MPEG-4 Visual
Format profile : Streaming [email protected]
Format settings, BVOP : Ja
Format settings, QPel : Nein
Format settings, GMC : No warpoints
Format settings, Matrix : Default
Codec ID : XVID
Codec ID/Hint : XviD
Duration : 1h 27min
Bitrate : 978 Kbps
Breite : 608 Pixel
Höhe : 336 Pixel
Bildseitenverhältnis : 16/9
Bildwiederholungsrate : 25.000 FPS
Auflösung : 8 bits
Colorimetry : 4:2:0
Scan type : Progressive
Bits/(Pixel*Frame) : 0.191
Stream size : 609 MiB
verwendete Encoder-Bibliothek : XviD 50

Audio
Format : MPEG Audio
Format version : Version 1
Format profile : Layer 3
Codec ID : 55
Codec ID/Hint : MP3
Duration : 1h 27min
Bitraten-Modus : Variable
Bitrate : 134 Kbps
Minimum bit rate : 32.0 Kbps
Kanäle : 2 Kanäle
Samplingrate : 48.0 KHz
Auflösung : 16 bits
Stream size : 83.2 MiB
verwendete Encoder-Bibliothek : LAME3.98b
Kodierungseinstellungen : VBR (mtrh)

related torrents

Torrent name

health leech seeds Size
 


comments (0)

Main Menu