Sci-Fi

ALTERED DEWSTRR

  • Download 5x Faster
  • Download torrent
  • Direct Download
  • Rate this torrent +  |  -
ALTERED DEWSTRR

Anonymous and free Direct Download 300GB+


Torrent info

Name:ALTERED DEWSTRR

Total Size: 952.59 MB

Magnet: Magnet Link

Seeds: 0

Leechers: 0

Stream: Watch Online @ Movie4u

Last Updated: 2010-01-23 16:18:36 (Update Now)

Torrent added: 2009-08-29 09:50:43



VPN For Torrents

Torrent Files List


ALT 1.jpg (Size: 952.59 MB) (Files: 13)

 ALT 1.jpg

5.13 KB

 ALT 1.sfv

1.23 KB

 ALT 2.jpg

17.89 KB

 ALT 3.jpg

12.31 KB

 ALT 4.jpg

18.74 KB

 ALT 5.jpg

15.34 KB

 ALT 6.jpg

10.39 KB

 ALT 7.jpg

20.26 KB

 ALT 8.jpg

18.05 KB

 ALT 9.jpg

21.69 KB

 ALTERED.DEWSTRR.divx

952.45 MB

 ALTERED.NFO

2.50 KB

 Torrent_downloaded_from_Demonoid.com.txt

0.05 KB
 

Announce URL: http://inferno.demonoid.com:3407/announce

Torrent description

ALTERED DVDRIP SCI-FI HORROR

Fifteen years ago, five men were abducted by aliens, Only four returned,3 of them[cody-Paul McCarthy-Boyington, duke-Brad William Henke, otis-Michael C. Williams] hunt the alien in the woods for a few years before finally capturing 1 of them,wyatt[Adam Kaufman]does not go on the hunt with the others, instead he prepares for them coming for him because they experimented on him and placed a homing device inside him, the 3 bring the alien to wyatt's garage and then the action starts,the alien has mind domination, manages to bite cody altering him into

http://www.imdb.com/title/tt0457275/

Video
Format : MPEG-4 Visual
Format settings, BVOP : Yes
Format settings, QPel : No
Format settings, GMC : No warppoints
Format settings, Matrix : Default
Codec ID : DX50
Codec ID/Hint : DivX 5
Duration : 1h 21mn
Bit rate : 1 496 Kbps
Width : 640 pixels
Height : 480 pixels
Display aspect ratio : 4/3
Frame rate : 23.976 fps
Resolution : 24 bits
Colorimetry : 4:2:0
Scan type : Progressive
Bits/(Pixel*Frame) : 0.203
Stream size : 872 MiB (92%)
Title : Video
Writing library : DivX 6.8.2 (UTC 2008-05-17)

Audio
Format : AC-3
Format/Info : Audio Coding 3
Codec ID : 2000
Duration : 1h 21mn
Bit rate mode : Constant
Bit rate : 128 Kbps
Channel(s) : 2 channels
Channel positions : L R
Sampling rate : 48.0 KHz
Stream size : 74.6 MiB (8%)
Alignment : Split accross interleaves
Interleave, duration : 42 ms (1.00 video frame)
Interleave, preload duration : 500 ms
Title : Audio

General
Complete name : ALTERED.DEWSTRR\ALT 1.sfv
File size : 1.23 KiB

General
Complete name : ALTERED.DEWSTRR\Torrent_downloaded_from_Demonoid.com.txt
File size : 47.0 Bytes
ALTERED DEWSTRR preview 0
ALTERED DEWSTRR preview 1
ALTERED DEWSTRR preview 2
ALTERED DEWSTRR preview 3
ALTERED DEWSTRR preview 4
ALTERED DEWSTRR preview 5
ALTERED DEWSTRR preview 6
ALTERED DEWSTRR preview 7
burned with windows [with a couple of other movies on a disk] and played on my philips divx ultra certified dvd player
SET YOUR DVD PLAYER TO 16:9 FOR FULL PICTURE ON YOUR TV

related torrents

Torrent name

health leech seeds Size
 


comments (0)

Main Menu