Sci-Fi

Alien[DVDRip][H264&AAC][h33t][cybermonk]

  • Download 5x Faster
  • Download torrent
  • Direct Download
  • Rate this torrent +  |  -
Alien[DVDRip][H264&AAC][h33t][cybermonk]

Free and Direct Download with Usenet 300GB+ free


Torrent info

Name:Alien[DVDRip][H264&AAC][h33t][cybermonk]

Total Size: 1.08 GB

Magnet: Magnet Link

Seeds: 0

Leechers: 1

Stream: Watch Online @ Movie4u

Last Updated: 2009-12-02 08:07:38 (Update Now)

Torrent added: 2009-08-29 09:50:24




Torrent Files List


ALIEN.mp4 (Size: 1.08 GB) (Files: 5)

 ALIEN.mp4

1.08 GB

 Alien.txt

1.80 KB

 Alien[DVDRip][H264&AAC][h33t][cybermonk].md5

0.39 KB

 Alien[DVDRip][H264&AAC][h33t][cybermonk].sfv

0.31 KB

 tracked_by_h33t_com.txt

0.02 KB
 

Announce URL: http://www.h33t.com:3310/announce

Torrent description

---------------------------------------------------------------------------
General
---------------------------------------------------------------------------
Complete name : ALIEN.mp4
Format : MPEG-4
Format profile : Base Media
Codec ID : isom
File size : 1.08 GiB
Duration : 1h 51mn
Overall bit rate : 1385 Kbps
Movie name : ALIEN
---------------------------------------------------------------------------
Video
---------------------------------------------------------------------------
Format : AVC
Format/Info : Advanced Video Codec
Format profile : [email protected]
Format settings, CABAC : No
Format settings, ReFrames : 1 frame
Codec ID : avc1
Duration : 1h 51mn
Bit rate mode : Variable
Bit rate : 1220 Kbps
Width : 720 pixels
Height : 576 pixels
Display aspect ratio : 5/4
Frame rate mode : Constant
Frame rate : 25.000 fps
Standard : PAL
Colorimetry : 4:2:0
Scan type : Progressive
Bits/(Pixel*Frame) : 0.118
Stream size : 973 MiB (88%)
----------------------------------------------------------------------------
Audio
----------------------------------------------------------------------------
Format : AAC
Format/Info : Advanced Audio Codec
Format version : Version 4
Format profile : LC
Format settings, SBR : No
Codec ID : 40
Duration : 1h 51mn
Bit rate mode : Variable
Bit rate : 160 Kbps
Channel(s) : 2 channels
Channel positions : L R
Sampling rate : 48.0 KHz
Resolution : 16 bits
Stream size : 128 MiB (12%)

related torrents

Torrent name

health leech seeds Size
 

comments (0)

Main Menu