Sci-Fi

Aliens[DVDRip][H264&AAC][h33t][cybermonk]

  • Download 5x Faster
  • Download torrent
  • Direct Download
  • Rate this torrent +  |  -
Aliens[DVDRip][H264&AAC][h33t][cybermonk]

Free and Direct Download with Usenet.nl 300GB+ free


Torrent info

Name:Aliens[DVDRip][H264&AAC][h33t][cybermonk]

Total Size: 1.43 GB

Magnet: Magnet Link

Seeds: 0

Leechers: 0

Stream: Watch Online @ Movie4u

Last Updated: 2016-02-04 18:33:53 (Update Now)

Torrent added: 2009-08-29 09:50:23





Torrent Files List


Aliens.mp4 (Size: 1.43 GB) (Files: 6)

 Aliens.mp4

1.43 GB

 Aliens.sfv

0.16 KB

 Aliens.SHA-1.txt

0.05 KB

 Aliens.txt

2.07 KB

 Aliens[DVDRip][H264&AAC][h33t][cybermonk].md5

0.39 KB

 tracked_by_h33t_com.txt

0.02 KB
 

tracker

leech seeds
 

Torrent description

-----------------------------------------------------------------------------------
General
-----------------------------------------------------------------------------------
Complete name : Aliens.mp4
Format : MPEG-4
Format profile : Base Media
Codec ID : isom
File size : 1.43 GiB
Duration : 2h 28mn
Overall bit rate : 1387 Kbps
Movie name : Aliens [Special Edition]
Performer : 20th Century Fox
Screenplay by : 20th Century Fox
Genre : Science Fiction
---------------------------------------------------------------------------------
Video
---------------------------------------------------------------------------------
Format : AVC
Format/Info : Advanced Video Codec
Format profile : [email protected]
Format settings, CABAC : No
Format settings, ReFrames : 1 frame
Codec ID : avc1
Duration : 2h 28mn
Bit rate mode : Variable
Bit rate : 1223 Kbps
Width : 720 pixels
Height : 480 pixels
Display aspect ratio : 1.500
Frame rate mode : Constant
Frame rate : 25.000 fps
Standard : NTSC
Colorimetry : 4:2:0
Scan type : Progressive
Bits/(Pixel*Frame) : 0.142
Stream size : 1.26 GiB (88%)
-------------------------------------------------------------------------------------
Audio
-------------------------------------------------------------------------------------
Format : AAC
Format/Info : Advanced Audio Codec
Format version : Version 4
Format profile : LC
Format settings, SBR : No
Codec ID : 40
Duration : 2h 28mn
Bit rate mode : Variable
Bit rate : 160 Kbps
Channel(s) : 2 channels
Channel positions : L R
Sampling rate : 48.0 KHz
Resolution : 16 bits
Stream size : 169 MiB (12%)
-----------------------------------------------------------------------------------

related torrents

Torrent name

health leech seeds Size
 

comments (0)

Main Menu