Sci-Fi

Alien Nation Body and Soul DVDRip Xvid TFE[

  • Download 5x Faster
  • Download torrent
  • Direct Download
  • Rate this torrent +  |  -
Alien Nation Body and Soul DVDRip Xvid TFE[

Free and Direct Download with Usenet.nl 300GB+ free


Torrent info

Name:Alien Nation Body and Soul DVDRip Xvid TFE[

Total Size: 705.37 MB

Magnet: Magnet Link

Seeds: 0

Leechers: 0

Stream: Watch Online @ Movie4u

Last Updated: 2015-08-28 22:18:03 (Update Now)

Torrent added: 2009-08-29 09:44:51





Torrent Files List


2 - Alien.Nation.Body.and.Soul.DVDRip.Xvid.TFE.part01.rar (Size: 705.37 MB) (Files: 52)

 2 - Alien.Nation.Body.and.Soul.DVDRip.Xvid.TFE.part01.rar

14.31 MB

 2 - Alien.Nation.Body.and.Soul.DVDRip.Xvid.TFE.part01.sfv

8.15 KB

 2 - Alien.Nation.Body.and.Soul.DVDRip.Xvid.TFE.part02.rar

14.31 MB

 2 - Alien.Nation.Body.and.Soul.DVDRip.Xvid.TFE.part03.rar

14.31 MB

 2 - Alien.Nation.Body.and.Soul.DVDRip.Xvid.TFE.part04.rar

14.31 MB

 2 - Alien.Nation.Body.and.Soul.DVDRip.Xvid.TFE.part05.rar

14.31 MB

 2 - Alien.Nation.Body.and.Soul.DVDRip.Xvid.TFE.part06.rar

14.31 MB

 2 - Alien.Nation.Body.and.Soul.DVDRip.Xvid.TFE.part07.rar

14.31 MB

 2 - Alien.Nation.Body.and.Soul.DVDRip.Xvid.TFE.part08.rar

14.31 MB

 2 - Alien.Nation.Body.and.Soul.DVDRip.Xvid.TFE.part09.rar

14.31 MB

 2 - Alien.Nation.Body.and.Soul.DVDRip.Xvid.TFE.part10.rar

14.31 MB

 2 - Alien.Nation.Body.and.Soul.DVDRip.Xvid.TFE.part11.rar

14.31 MB

 2 - Alien.Nation.Body.and.Soul.DVDRip.Xvid.TFE.part12.rar

14.31 MB

 2 - Alien.Nation.Body.and.Soul.DVDRip.Xvid.TFE.part13.rar

14.31 MB

 2 - Alien.Nation.Body.and.Soul.DVDRip.Xvid.TFE.part14.rar

14.31 MB

 2 - Alien.Nation.Body.and.Soul.DVDRip.Xvid.TFE.part15.rar

14.31 MB

 2 - Alien.Nation.Body.and.Soul.DVDRip.Xvid.TFE.part16.rar

14.31 MB

 2 - Alien.Nation.Body.and.Soul.DVDRip.Xvid.TFE.part17.rar

14.31 MB

 2 - Alien.Nation.Body.and.Soul.DVDRip.Xvid.TFE.part18.rar

14.31 MB

 2 - Alien.Nation.Body.and.Soul.DVDRip.Xvid.TFE.part19.rar

14.31 MB

 2 - Alien.Nation.Body.and.Soul.DVDRip.Xvid.TFE.part20.rar

14.31 MB

 2 - Alien.Nation.Body.and.Soul.DVDRip.Xvid.TFE.part21.rar

14.31 MB

 2 - Alien.Nation.Body.and.Soul.DVDRip.Xvid.TFE.part22.rar

14.31 MB

 2 - Alien.Nation.Body.and.Soul.DVDRip.Xvid.TFE.part23.rar

14.31 MB

 2 - Alien.Nation.Body.and.Soul.DVDRip.Xvid.TFE.part24.rar

14.31 MB

 2 - Alien.Nation.Body.and.Soul.DVDRip.Xvid.TFE.part25.rar

14.31 MB

 2 - Alien.Nation.Body.and.Soul.DVDRip.Xvid.TFE.part26.rar

14.31 MB

 2 - Alien.Nation.Body.and.Soul.DVDRip.Xvid.TFE.part27.rar

14.31 MB

 2 - Alien.Nation.Body.and.Soul.DVDRip.Xvid.TFE.part28.rar

14.31 MB

 2 - Alien.Nation.Body.and.Soul.DVDRip.Xvid.TFE.part29.rar

14.31 MB

 2 - Alien.Nation.Body.and.Soul.DVDRip.Xvid.TFE.part30.rar

14.31 MB

 2 - Alien.Nation.Body.and.Soul.DVDRip.Xvid.TFE.part31.rar

14.31 MB

 2 - Alien.Nation.Body.and.Soul.DVDRip.Xvid.TFE.part32.rar

14.31 MB

 2 - Alien.Nation.Body.and.Soul.DVDRip.Xvid.TFE.part33.rar

14.31 MB

 2 - Alien.Nation.Body.and.Soul.DVDRip.Xvid.TFE.part34.rar

14.31 MB

 2 - Alien.Nation.Body.and.Soul.DVDRip.Xvid.TFE.part35.rar

14.31 MB

 2 - Alien.Nation.Body.and.Soul.DVDRip.Xvid.TFE.part36.rar

14.31 MB

 2 - Alien.Nation.Body.and.Soul.DVDRip.Xvid.TFE.part37.rar

14.31 MB

 2 - Alien.Nation.Body.and.Soul.DVDRip.Xvid.TFE.part38.rar

14.31 MB

 2 - Alien.Nation.Body.and.Soul.DVDRip.Xvid.TFE.part39.rar

14.31 MB

 2 - Alien.Nation.Body.and.Soul.DVDRip.Xvid.TFE.part40.rar

14.31 MB

 2 - Alien.Nation.Body.and.Soul.DVDRip.Xvid.TFE.part41.rar

14.31 MB

 2 - Alien.Nation.Body.and.Soul.DVDRip.Xvid.TFE.part42.rar

14.31 MB

 2 - Alien.Nation.Body.and.Soul.DVDRip.Xvid.TFE.part43.rar

14.31 MB

 2 - Alien.Nation.Body.and.Soul.DVDRip.Xvid.TFE.part44.rar

14.31 MB

 2 - Alien.Nation.Body.and.Soul.DVDRip.Xvid.TFE.part45.rar

14.31 MB

 2 - Alien.Nation.Body.and.Soul.DVDRip.Xvid.TFE.part46.rar

14.31 MB

 2 - Alien.Nation.Body.and.Soul.DVDRip.Xvid.TFE.part47.rar

14.31 MB

 2 - Alien.Nation.Body.and.Soul.DVDRip.Xvid.TFE.part48.rar

14.31 MB

 2 - Alien.Nation.Body.and.Soul.DVDRip.Xvid.TFE.part49.rar

14.31 MB

 2 - Alien.Nation.Body.and.Soul.DVDRip.Xvid.TFE.part50.rar

4.41 MB

 Alien nation - body and soul.nfo

2.05 KB
 

tracker

leech seeds
 

Torrent description

General
Complete name : C:\Torrent Creation\2 - Alien.Nation.Body.and.Soul.DVDRip.Xvid.TFE\2 - Alien.Nation.Body.and.Soul.DVDRip.Xvid.TFE.avi
Format : AVI
Format/Info : Audio Video Interleave
File size : 705 MiB
Duration : 1h 30mn
Overal bit rate : 1096 Kbps
Movie name : ALIEN_NATION_D2A.Title1.DVDRip
Director : tt
Writing application : Lavf51.19.0
Product : ALIEN_NATION_D2A

Video
Format : MPEG-4 Visual
Format profile : [email protected]
Format settings, BVOP : No
Format settings, QPel : No
Format settings, GMC : No warppoints
Format settings, Matrix : Default
Codec ID : XVID
Codec ID/Hint : XviD
Duration : 1h 30mn
Bit rate : 954 Kbps
Width : 608 pixels
Height : 464 pixels
Display aspect ratio : 4/3
Frame rate : 29.970 fps
Resolution : 8 bits
Colorimetry : 4:2:0
Scan type : Progressive
Bits/(Pixel*Frame) : 0.113
Stream size : 614 MiB
Writing library : XviD 1.1.2 (UTC 2006-11-01)

Audio
Format : MPEG Audio
Format version : Version 1
Format profile : Layer 3
Codec ID : 55
Codec ID/Hint : MP3
Duration : 1h 30mn
Bit rate mode : Constant
Bit rate : 128 Kbps
Channel(s) : 2 channels
Sampling rate : 48.0 KHz
Resolution : 16 bits
Stream size : 82.4 MiB
Writing library : LAME3.97


Link: http://www.imdb.com/title/tt0112319/

related torrents

Torrent name

health leech seeds Size
 

comments (0)

Main Menu